Низшее образование / Lower Learning (Марк Лэфферти) [2008, Комедия, HQRip-AVC]

Ответить на тему
 
Автор
Сообщение

diim ®

Пол:

Стаж: 3 года

Сообщений: 1035

Репутация: 112 [+] [-]

Пост 30-Янв-2012 18:32

[Цитировать] 

Низшее образование / Lower LearningГод выпуска: 2008
Страна: США
Слоган: «No rules. No escape. No class.»
Жанр: Комедия
Продолжительность: 01:37:04
Перевод: Профессиональный (многоголосый закадровый) + Оригинальная звуковая дорожка-Режиссёр: Марк Лэфферти
В ролях: Джейсон Биггз, Ева Лонгория Паркер, Роб Кордри, Моника Поттер, Уилл Сассо, Нат Факсон, Джилл Лэтиэно, Кайл Гэсс, Хэйес МакАртур, Захари Гордан-Описание: Начальная школа Джеральдин Феррэро — на грани краха: самые низкие экзаменационные оценки в штате, пьяные учителя и руководитель, который вымогает деньги у родителей. И все это досталось неудачнику Тому, которому предстоит сплотить ленивых учителей, искоренить коррупцию и представить школу в лучшем свете, чтобы избежать ее закрытия.--Качество: HQRip-AVC
Формат: MKV
Видео кодек: H264 (AVC)
Аудио кодек: AC3 (Dolby Digital)
Видео: 1280x532, 23.976 fps, 3517 kbps
Аудио #1: 2.0 , 192 kbps, 48 kHz [Профессиональный (многоголосый закадровый)] ТНТ
Аудио #2: 5.1 , 640 kbps, 48 kHz [Оригинальная звуковая дорожка]
Субтитры: Английские-

MediaInfo

General
Unique ID : 188246993519825267448892126395195729610 (0x8D9F0D5B6932E55F8D04FA43614426CA)
Complete name : Lower.Learning.2008.mkv
Format : Matroska
File size : 2.95 GiB
Duration : 1h 37mn
Overall bit rate : 4 351 Kbps
Encoded date : UTC 2010-02-04 11:50:17
Writing application : mkvmerge v3.1.0 ('Happy up here') built on Jan 19 2010 12:09:24
Writing library : libebml v0.7.9 + libmatroska v0.8.1
Video
ID : 1
Format : AVC
Format/Info : Advanced Video Codec
Format profile : High@L4.1
Format settings, CABAC : Yes
Format settings, ReFrames : 9 frames
Codec ID : V_MPEG4/ISO/AVC
Duration : 1h 37mn
Bit rate : 3 432 Kbps
Width : 1 280 pixels
Height : 532 pixels
Display aspect ratio : 2.40:1
Frame rate : 23.976 fps
Color space : YUV
Chroma subsampling : 4:2:0
Bit depth : 8 bits
Scan type : Progressive
Bits/(Pixel*Frame) : 0.210
Stream size : 2.33 GiB (79%)
Title : x264-CRiSC
Writing library : x264 core 77 r1292 e381f6d
Encoding settings : cabac=1 / ref=9 / deblock=1:-3:-3 / analyse=0x3:0x113 / me=umh / subme=9 / psy=1 / psy_rd=1.0:0.0 / mixed_ref=1 / me_range=24 / chroma_me=1 / trellis=2 / 8x8dct=1 / cqm=0 / deadzone=21,11 / chroma_qp_offset=-2 / threads=3 / nr=0 / decimate=1 / mbaff=0 / constrained_intra=0 / bframes=6 / b_pyramid=1 / b_adapt=2 / b_bias=0 / direct=1 / wpredb=1 / keyint=250 / keyint_min=25 / scenecut=40 / rc=crf / mbtree=0 / crf=17.0 / qcomp=0.75 / qpmin=10 / qpmax=51 / qpstep=4 / ip_ratio=1.40 / pb_ratio=1.30 / aq=1:1.20
Language : English
Audio #1
ID : 2
Format : AC-3
Format/Info : Audio Coding 3
Mode extension : CM (complete main)
Codec ID : A_AC3
Duration : 1h 37mn
Bit rate mode : Constant
Bit rate : 192 Kbps
Channel(s) : 2 channels
Channel positions : Front: L R
Sampling rate : 48.0 KHz
Bit depth : 16 bits
Compression mode : Lossy
Stream size : 133 MiB (4%)
Title : AC3 2.0 192 kbps
Language : Russian
Audio #2
ID : 3
Format : AC-3
Format/Info : Audio Coding 3
Mode extension : CM (complete main)
Codec ID : A_AC3
Duration : 1h 37mn
Bit rate mode : Constant
Bit rate : 640 Kbps
Channel(s) : 6 channels
Channel positions : Front: L C R, Side: L R, LFE
Sampling rate : 48.0 KHz
Bit depth : 16 bits
Compression mode : Lossy
Stream size : 444 MiB (15%)
Title : AC3 5.1 640 kbps
Language : English
Text
ID : 4
Format : UTF-8
Codec ID : S_TEXT/UTF8
Codec ID/Info : UTF-8 Plain Text
Language : English
Menu
00:00:00.000 : :00:00:00.000
00:10:02.602 : :00:10:02.602
00:20:03.202 : :00:20:03.202
00:30:03.802 : :00:30:03.802
00:40:04.402 : :00:40:04.402
00:50:05.002 : :00:50:05.002
01:00:05.602 : :01:00:05.602
01:10:06.202 : :01:10:06.202
01:20:06.802 : :01:20:06.802
01:30:07.402 : :01:30:07.402

Скриншоты

[Торрент-статистика]
[Профиль]  [ЛС] 
Показать сообщения:    
Ответить на тему

Текущее время: Сегодня 01:38

Часовой пояс: GMT + 4



Вы не можете начинать темы
Вы не можете отвечать на сообщения
Вы не можете редактировать свои сообщения
Вы не можете удалять свои сообщения
Вы не можете голосовать в опросах
Вы не можете прикреплять файлы к сообщениям
Вы не можете скачивать файлы