Изнутри / From Within (Фидон Папамайкл) [2008, Ужасы, триллер, HQRip-AVC]

Ответить на тему
 
Автор
Сообщение

diim ®

Пол:

Стаж: 3 года 3 месяца

Сообщений: 1035

Репутация: 112 [+] [-]

Пост 23-Янв-2012 10:51

[Цитировать] 

Изнутри / From WithinГод выпуска: 2008
Страна: США
Слоган: «Зло всегда приходит изнутри...»
Жанр: Ужасы, триллер
Продолжительность: 01:29:26
Перевод: Профессиональный (многоголосый закадровый)
Субтитры: Русские-Режиссёр: Фидон Папамайкл
В ролях: Элизабет Райс, Томас Деккер, Келли Блац, Лаура Аллен, Адам Голдберг, Марго Харшман, Румер Уиллис, Бриттани Робертсон, Стивен Калп, Джаред Харрис-Описание: Странная эпидемия самоубийств поразила маленький и очень религиозный провинциальный городок… Кажется, это какой-то вирус или проклятие — каждый новый самоубийца незадолго до смерти контактировал с трупом предыдущей жертвы. Подозрения быстро падают на Эйдена — брата первого самоубийцы и представителя очень сомнительного семейства.
Его незамедлительно избивают, но за него заступается Линдси. Заступается и забирает к себе домой отлежаться, тем самым настроив против себя почти всех местных жителей. Теперь Линдси предстоит разобраться с происходящим, возможно, разгадка лежит в трагическом прошлом семьи Эйдена, с которым отныне ее связывают не просто дружеские отношения.--Качество: HQRip-AVC
Формат: MKV
Видео кодек: H264 (AVC)
Аудио кодек: AC3 (Dolby Digital)
Видео: 1024x432 (2.35:1), 23.976 fps, H264,1880 kbps
Аудио #1: 48 kHz, 3/2 (L,C,R,l,r) + LFE ch, ~448.00 kbps avg [Профессиональный (многоголосый закадровый)] лицензия
Аудио #2: 48 kHz, 3/2 (L,C,R,l,r) + LFE ch, ~448.00 kbps avg [Оригинальная звуковая дорожка] отдельно
Субтитры: Русские-

MediaInfo

General
Unique ID : 194994859265290997009961943954182595202 (0x92B2A4D3186AD4B59C36EF1034876282)
Complete name : Iznutri.2008.mkv
Format : Matroska
File size : 1.45 GiB
Duration : 1h 29mn
Overall bit rate : 2 321 Kbps
Movie name :
Encoded date : UTC 2010-07-19 15:49:46
Writing application : mkvmerge v3.0.0 ('Hang up your Hang-Ups') built on Dec 12 2009 15:20:35
Writing library : libebml v0.7.9 + libmatroska v0.8.1
Video
ID : 1
Format : AVC
Format/Info : Advanced Video Codec
Format profile : High@L4.1
Format settings, CABAC : Yes
Format settings, ReFrames : 10 frames
Codec ID : V_MPEG4/ISO/AVC
Duration : 1h 29mn
Bit rate : 1 880 Kbps
Width : 1 024 pixels
Height : 432 pixels
Display aspect ratio : 2.35:1
Frame rate : 23.976 fps
Color space : YUV
Chroma subsampling : 4:2:0
Bit depth : 8 bits
Scan type : Progressive
Bits/(Pixel*Frame) : 0.177
Stream size : 1.14 GiB (79%)
Title : Iznutri
Writing library : x264 core 98 r1649 c54c47d
Encoding settings : cabac=1 / ref=10 / deblock=1:-2:-1 / analyse=0x3:0x133 / me=umh / subme=9 / psy=1 / psy_rd=1.00:0.10 / mixed_ref=0 / me_range=32 / chroma_me=1 / trellis=2 / 8x8dct=1 / cqm=0 / deadzone=21,11 / fast_pskip=0 / chroma_qp_offset=-3 / threads=3 / sliced_threads=0 / nr=0 / decimate=1 / interlaced=0 / constrained_intra=0 / bframes=8 / b_pyramid=2 / b_adapt=2 / b_bias=0 / direct=1 / weightb=1 / weightp=2 / keyint=250 / keyint_min=25 / scenecut=40 / intra_refresh=0 / rc=2pass / mbtree=0 / bitrate=1880 / ratetol=1.0 / qcomp=0.60 / qpmin=10 / qpmax=51 / qpstep=4 / cplxblur=20.0 / qblur=0.5 / ip_ratio=1.40 / pb_ratio=1.30 / aq=1:1.10
Language : English
Audio
ID : 2
Format : AC-3
Format/Info : Audio Coding 3
Mode extension : CM (complete main)
Codec ID : A_AC3
Duration : 1h 29mn
Bit rate mode : Constant
Bit rate : 448 Kbps
Channel(s) : 6 channels
Channel positions : Front: L C R, Side: L R, LFE
Sampling rate : 48.0 KHz
Bit depth : 16 bits
Compression mode : Lossy
Stream size : 287 MiB (19%)
Title : Многоголосый
Text
ID : 3
Format : UTF-8
Codec ID : S_TEXT/UTF8
Codec ID/Info : UTF-8 Plain Text
Title : Русские

Скриншоты

[Торрент-статистика]
[Профиль]  [ЛС] 
Показать сообщения:    
Ответить на тему

Текущее время: Сегодня 04:20

Часовой пояс: GMT + 4



Вы не можете начинать темы
Вы не можете отвечать на сообщения
Вы не можете редактировать свои сообщения
Вы не можете удалять свои сообщения
Вы не можете голосовать в опросах
Вы не можете прикреплять файлы к сообщениям
Вы не можете скачивать файлы