Темный этаж / Dark Floors (Пете Риски) [2008, Ужасы, фэнтези, HQRip-AVC]

Ответить на тему
 
Автор
Сообщение

diim ®

Пол:

Стаж: 3 года 2 месяца

Сообщений: 1035

Репутация: 112 [+] [-]

Пост 23-Янв-2012 10:46

[Цитировать] 

Темный этаж / Dark FloorsГод выпуска: 2008
Страна: Финляндия, Исландия
Слоган: «Здесь царит страх...»
Жанр: Ужасы, фэнтези
Продолжительность: 01:21:44
Перевод: Профессиональный (дубляж)
Режиссёр: Пете Риски
В ролях: Уильям Хоуп, Леон Херберт, Рональд Пикап, Филип Брезертон, Ной Хантли, Доминик МакЭллигот, Скай Беннетт, Лорди, Кита, Амен-Описание: Сара — маленькая девочка, страдающая аутизмом. Ее отец, не видя никаких улучшений в здоровье дочери, решает забрать девочку из больницы. Однако покинуть стены госпиталя им не суждено — неожиданно лифт, в котором они спускаются к выходу, ломается, и Сара вместе с отцом и другими пассажирами оказывается в ловушке. Но это только начало кошмара.
Когда двери лифта откроются, их ждет настоящий ужас — существа из потустороннего мира, жертвами которых уже стали множество пациентов больницы, не пощадят никого. Единственным человеком, способным спасти несчастных, оказывается Сара…--Качество: HQRip-AVC
Формат: MKV
Видео кодек: H264 (AVC)
Аудио кодек: AC3 (Dolby Digital)
Видео: 1024x432 (2.35:1), 25 fps, H264 ,2164 kbps
Аудио #1: 48 kHz, 3/2 (L,C,R,l,r) + LFE ch, ~384 kbps [Профессиональный (дубляж)]
Аудио #2: 48 kHz, 3/2 (L,C,R,l,r) + LFE ch, ~448 kbps [Профессиональный (многоголосый закадровый)] отдельно
Аудио #3: 48 kHz, 3/2 (L,C,R,l,r) + LFE ch, ~448 kbps [Оригинальная звуковая дорожка] Английский-отдельно
Аудио #4: 48 kHz, 3/2 (L,C,R,l,r) + LFE ch, ~448 kbps [Оригинальная звуковая дорожка] Немецкий-отдельно
Субтитры: Русские, Английские-

MediaInfo

General
Unique ID : 214963001228062066054621293226598410936 (0xA1B85E3BCE019EC08CD1D1826B192AB8)
Complete name : Dark_ Floors.2008.mkv
Format : Matroska
File size : 1.45 GiB
Duration : 1h 21mn
Overall bit rate : 2 544 Kbps
Movie name :
Encoded date : UTC 2010-07-13 17:56:15
Writing application : mkvmerge v3.0.0 ('Hang up your Hang-Ups') built on Dec 12 2009 15:20:35
Writing library : libebml v0.7.9 + libmatroska v0.8.1
Video
ID : 1
Format : AVC
Format/Info : Advanced Video Codec
Format profile : High@L4.1
Format settings, CABAC : Yes
Format settings, ReFrames : 9 frames
Codec ID : V_MPEG4/ISO/AVC
Duration : 1h 21mn
Bit rate : 2 164 Kbps
Width : 1 024 pixels
Height : 432 pixels
Display aspect ratio : 2.35:1
Frame rate : 25.000 fps
Color space : YUV
Chroma subsampling : 4:2:0
Bit depth : 8 bits
Scan type : Progressive
Bits/(Pixel*Frame) : 0.196
Stream size : 1.20 GiB (83%)
Title : Dark Floors
Writing library : x264 core 98 r1649 c54c47d
Encoding settings : cabac=1 / ref=9 / deblock=1:-2:-1 / analyse=0x3:0x133 / me=umh / subme=9 / psy=1 / psy_rd=1.00:0.10 / mixed_ref=0 / me_range=32 / chroma_me=1 / trellis=2 / 8x8dct=1 / cqm=0 / deadzone=21,11 / fast_pskip=0 / chroma_qp_offset=-3 / threads=3 / sliced_threads=0 / nr=0 / decimate=1 / interlaced=0 / constrained_intra=0 / bframes=10 / b_pyramid=2 / b_adapt=2 / b_bias=0 / direct=1 / weightb=1 / weightp=2 / keyint=250 / keyint_min=25 / scenecut=40 / intra_refresh=0 / rc=2pass / mbtree=0 / bitrate=2164 / ratetol=1.0 / qcomp=0.60 / qpmin=10 / qpmax=51 / qpstep=4 / cplxblur=20.0 / qblur=0.5 / ip_ratio=1.40 / pb_ratio=1.30 / aq=1:1.10
Language : English
Audio
ID : 2
Format : AC-3
Format/Info : Audio Coding 3
Mode extension : CM (complete main)
Codec ID : A_AC3
Duration : 1h 21mn
Bit rate mode : Constant
Bit rate : 384 Kbps
Channel(s) : 6 channels
Channel positions : Front: L C R, Side: L R, LFE
Sampling rate : 48.0 KHz
Bit depth : 16 bits
Compression mode : Lossy
Stream size : 225 MiB (15%)
Title : Дубляж
Text #1
ID : 3
Format : UTF-8
Codec ID : S_TEXT/UTF8
Codec ID/Info : UTF-8 Plain Text
Title : Русские
Text #2
ID : 4
Format : UTF-8
Codec ID : S_TEXT/UTF8
Codec ID/Info : UTF-8 Plain Text
Title : Английские

Скриншоты

[Торрент-статистика]
[Профиль]  [ЛС] 
Показать сообщения:    
Ответить на тему

Текущее время: Сегодня 08:29

Часовой пояс: GMT + 4



Вы не можете начинать темы
Вы не можете отвечать на сообщения
Вы не можете редактировать свои сообщения
Вы не можете удалять свои сообщения
Вы не можете голосовать в опросах
Вы не можете прикреплять файлы к сообщениям
Вы не можете скачивать файлы