Крисалис / Chrysalis (Жюльен Леклерк) [2007, Фантастика, триллер, HQRip-AVC]

Ответить на тему
 
Автор
Сообщение

diim ®

Пол:

Стаж: 3 года 6 месяцев

Сообщений: 1035

Репутация: 112 [+] [-]

Пост 23-Янв-2012 10:42

[Цитировать] 

Крисалис / ChrysalisГод выпуска: 2007
Страна: Франция
Слоган: «Certains souvenirs ne s'effacent jamais»
Жанр: Фантастика, триллер
Продолжительность: 01:33:58
Перевод: Профессиональный (многоголосый закадровый) + Оригинальная звуковая дорожка-Режиссёр: Жюльен Леклерк
В ролях: Альбер Дюпонтель, Мари Гийяр, Марта Келлер, Мелани Тьерри, Клод Перрон, Ален Фиглаж, Смади Вольфман, Патрик Бошо, Гай Леклюиз, Сирил Лекомте-Описание: Париж, 2020 год. Хирург, специализирующийся на новых технологиях и ее дочь попадают в ужасную автомобильную аварию. Врач спасает жизнь дочери, используя свои разработки и воздействуя на ее мечты и воспоминания. В это же время полицейский Хофман в результате бандитской перестрелки, теряет своего напарника и жену. Хофман жаждет отмщения и поэтому, как только получает нового напарника, начинает охоту за преступником, убившем самых дорогих ему людей. Расследование неожиданно приводит Хофмана к хирургу, ее клинике, загадочным разработкам и исследованиям, проводящихся там.--Качество: HQRip-AVC
Формат: MKV
Видео кодек: H264 (AVC)
Аудио кодек: AC3 (Dolby Digital)
Видео: 1152x496 , 23,976 кадр/сек, 1806 Кбит/сек
Аудио #1: 48 kHz, 3/2 (L,C,R,l,r) + LFE ch, ~448 kbps [Профессиональный (многоголосый закадровый)]
Аудио #2: 48 kHz, 3/2 (L,C,R,l,r) + LFE ch, ~448 kbps [Оригинальная звуковая дорожка] Французский
Субтитры: Русские-

MediaInfo

General
Unique ID : 243349062721023338635747456987630021004 (0xB713531E71D53CA2B58C6B7C0BDE298C)
Complete name : Krisalis.2007.mkv
Format : Matroska
File size : 2.19 GiB
Duration : 1h 33mn
Overall bit rate : 3 342 Kbps
Encoded date : UTC 2010-02-11 16:04:51
Writing application : mkvmerge v3.0.0 ('Hang up your Hang-Ups') built on Dec 12 2009 15:20:35
Writing library : libebml v0.7.9 + libmatroska v0.8.1
Video
ID : 1
Format : AVC
Format/Info : Advanced Video Codec
Format profile : High@L4.0
Format settings, CABAC : Yes
Format settings, ReFrames : 8 frames
Codec ID : V_MPEG4/ISO/AVC
Duration : 1h 33mn
Bit rate : 2 445 Kbps
Width : 1 152 pixels
Height : 496 pixels
Display aspect ratio : 2.35:1
Frame rate : 23.976 fps
Color space : YUV
Chroma subsampling : 4:2:0
Bit depth : 8 bits
Scan type : Progressive
Bits/(Pixel*Frame) : 0.178
Stream size : 1.56 GiB (71%)
Writing library : x264 core 80 r1376M 3feaec2
Encoding settings : cabac=1 / ref=8 / deblock=1:-2:-1 / analyse=0x3:0x113 / me=umh / subme=9 / psy=1 / psy_rd=1.0:0.1 / mixed_ref=0 / me_range=24 / chroma_me=1 / trellis=2 / 8x8dct=1 / cqm=0 / deadzone=21,11 / fast_pskip=0 / chroma_qp_offset=-3 / threads=3 / sliced_threads=0 / nr=1 / decimate=0 / mbaff=0 / constrained_intra=0 / bframes=7 / b_pyramid=0 / b_adapt=2 / b_bias=0 / direct=1 / wpredb=0 / wpredp=0 / keyint=250 / keyint_min=25 / scenecut=40 / rc_lookahead=60 / rc=2pass / mbtree=1 / bitrate=2445 / ratetol=1.0 / qcomp=0.60 / qpmin=10 / qpmax=51 / qpstep=4 / cplxblur=20.0 / qblur=0.5 / ip_ratio=1.40 / aq=1:1.00
Language : English
Audio #1
ID : 2
Format : AC-3
Format/Info : Audio Coding 3
Mode extension : CM (complete main)
Codec ID : A_AC3
Duration : 1h 33mn
Bit rate mode : Constant
Bit rate : 448 Kbps
Channel(s) : 6 channels
Channel positions : Front: L C R, Side: L R, LFE
Sampling rate : 48.0 KHz
Bit depth : 16 bits
Compression mode : Lossy
Stream size : 301 MiB (13%)
Audio #2
ID : 3
Format : AC-3
Format/Info : Audio Coding 3
Mode extension : CM (complete main)
Codec ID : A_AC3
Duration : 1h 33mn
Bit rate mode : Constant
Bit rate : 448 Kbps
Channel(s) : 6 channels
Channel positions : Front: L C R, Side: L R, LFE
Sampling rate : 48.0 KHz
Bit depth : 16 bits
Compression mode : Lossy
Stream size : 301 MiB (13%)
Text #1
ID : 4
Format : UTF-8
Codec ID : S_TEXT/UTF8
Codec ID/Info : UTF-8 Plain Text
Text #2
ID : 5
Format : UTF-8
Codec ID : S_TEXT/UTF8
Codec ID/Info : UTF-8 Plain Text

Скриншоты

[Торрент-статистика]
[Профиль]  [ЛС] 
Показать сообщения:    
Ответить на тему

Текущее время: Сегодня 20:12

Часовой пояс: GMT + 4



Вы не можете начинать темы
Вы не можете отвечать на сообщения
Вы не можете редактировать свои сообщения
Вы не можете удалять свои сообщения
Вы не можете голосовать в опросах
Вы не можете прикреплять файлы к сообщениям
Вы не можете скачивать файлы