12 метров без головы / Zwölf Meter ohne Kopf (Свен Таддикен) [2009, Комедия, приключения, HQRip-AVC] R5

Ответить на тему
 
Автор
Сообщение

diim ®

Пол:

Стаж: 3 года 2 месяца

Сообщений: 1035

Репутация: 112 [+] [-]

Пост 20-Янв-2012 23:28

[Цитировать] 

12 метров без головы / Zwölf Meter ohne Kopf Год выпуска: 2009
Страна: Германия
Жанр: Комедия, приключения
Продолжительность: 01:38:27
Перевод: Профессиональный (многоголосый закадровый)
Субтитры: Нет-Режиссёр: Свен Таддикен
Сценарист: Свен Таддикен
Продюсер: Уве Кольбе, Стефан Шуберт
Оператор: Даниела Кнапп
Композитор: Кристоф Блейзер
В ролях: Роналд Зикфрильд, Маттиас Швайгхефер, Оливер Брёккер, Хиннерк Шонеманн, Якоб Маченц, Франциска Вульф, Яна Палласке, Девид Штрисов, Александр Шеер, Милан Пешель-Описание: 1400 год. Суровый капитан Клаус Штертбекер и его помощник Михелс возглавляют самую отчаянную пиратскую команду во всей Восточной Фризии. Но во время последнего захвата торгового судна Клаус получает тяжелую рану и решает навсегда оставить разбойничий промысел. Когда ничто уже, казалось бы, не может повлиять на капитана, Михелс случайно обнаруживает на борту их ветхого корабля оружие невероятной мощи, которое поможет им вновь утвердить господство на море.-Мировая премьера: 11 июня 2009-Качество: HQRip-AVC
Формат: MKV
Видео кодек: H264 (AVC)
Аудио кодек: AC3 (Dolby Digital)
Видео: 1024x436 (2,35:1), 23,976 кадр/сек, 1731 Кбит/сек, 0.155 bit/pixel
Аудио #1: 384 Кбит/сек, 6 каналов, 48,0 КГц [Профессиональный (многоголосый закадровый)] Лицензия R5

MediaInfo

General
Unique ID : 239134680575870549156018108297797269052 (0xB3E7AA096BCD35AC8434E9FB4DC1763C)
Complete name : Zwolf Meter ohne Kopf.2009.mkv
Format : Matroska
File size : 1.45 GiB
Duration : 1h 38mn
Overall bit rate : 2 114 Kbps
Movie name : 12 метров без головы / Zwolf Meter ohne Kopf (2009) HDRip-AVC
Encoded date : UTC 2012-01-18 20:22:38
Writing application : mkvmerge v5.0.1 ('Es ist Sommer') built on Oct 9 2011 11:55:43
Writing library : libebml v1.2.2 + libmatroska v1.3.0
Video
ID : 1
Format : AVC
Format/Info : Advanced Video Codec
Format profile : High@L4.1
Format settings, CABAC : Yes
Format settings, ReFrames : 9 frames
Format settings, GOP : M=1, N=32
Codec ID : V_MPEG4/ISO/AVC
Duration : 1h 38mn
Bit rate : 1 731 Kbps
Width : 1 024 pixels
Height : 436 pixels
Display aspect ratio : 2.35:1
Frame rate : 25.000 fps
Color space : YUV
Chroma subsampling : 4:2:0
Bit depth : 8 bits
Scan type : Progressive
Bits/(Pixel*Frame) : 0.155
Stream size : 1.16 GiB (80%)
Writing library : x264 core 116 r2074 2641b9e
Encoding settings : cabac=1 / ref=9 / deblock=1:-2:-1 / analyse=0x3:0x113 / me=hex / subme=9 / psy=1 / psy_rd=1.00:0.00 / mixed_ref=1 / me_range=16 / chroma_me=1 / trellis=2 / 8x8dct=1 / cqm=0 / deadzone=21,11 / fast_pskip=1 / chroma_qp_offset=-2 / threads=3 / sliced_threads=0 / nr=0 / decimate=1 / interlaced=0 / bluray_compat=0 / constrained_intra=0 / bframes=8 / b_pyramid=2 / b_adapt=1 / b_bias=0 / direct=1 / weightb=1 / open_gop=0 / weightp=2 / keyint=250 / keyint_min=25 / scenecut=40 / intra_refresh=0 / rc=2pass / mbtree=0 / bitrate=1731 / ratetol=1.0 / qcomp=0.60 / qpmin=10 / qpmax=51 / qpstep=4 / cplxblur=20.0 / qblur=0.5 / ip_ratio=1.40 / pb_ratio=1.30 / aq=1:1.00
Audio
ID : 2
Format : AC-3
Format/Info : Audio Coding 3
Mode extension : CM (complete main)
Codec ID : A_AC3
Duration : 1h 38mn
Bit rate mode : Constant
Bit rate : 384 Kbps
Channel(s) : 6 channels
Channel positions : Front: L C R, Side: L R, LFE
Sampling rate : 48.0 KHz
Bit depth : 16 bits
Compression mode : Lossy
Delay relative to video : 350ms
Stream size : 270 MiB (18%)
Title : MVO
Language : Russian

Скриншоты

[Торрент-статистика]
[Профиль]  [ЛС] 
Показать сообщения:    
Ответить на тему

Текущее время: Сегодня 08:31

Часовой пояс: GMT + 4



Вы не можете начинать темы
Вы не можете отвечать на сообщения
Вы не можете редактировать свои сообщения
Вы не можете удалять свои сообщения
Вы не можете голосовать в опросах
Вы не можете прикреплять файлы к сообщениям
Вы не можете скачивать файлы