Мост в Терабитию / Bridge to Terabithia (Габор Чупо) [2007, фэнтези, драма, приключения, семейный, HQRip-AVC]

Ответить на тему
 
Автор
Сообщение

diim ®

Пол:

Стаж: 3 года

Сообщений: 1035

Репутация: 112 [+] [-]

Пост 20-Янв-2012 22:00

[Цитировать] 

Мост в Терабитию / Bridge to Terabithia
«Сказка становится реальностью»

-Год выпуска: 2007
Страна: США
Жанр: фэнтези | драма | приключения | семейный-Перевод: Профессиональный (полное дублирование)-Режиссер:Габор Чупо
Авторы сценария: Джефф Стокуэлл • Дэвид Патерсон • Кэтрин Патерсон
Продюсеры: Лоурен Ливайн • Хэл Либерман • Дэвид Патерсон
Оператор: Майкл Чэпмен
Композитор: Аарон Зигман
В ролях: Джош Хатчерсон • Анна-Cофия Робб • Зои Дешанель • Роберт Патрик • Бэйли Мэдисон • Кейт Батлер • Девон Вуд • Эмма Фентон • Грэйс Брэнниган-Описание: Надежды ученика пятого класса Джесса Аарона стать самым быстрым бегуном в классе разбились после того, как новичок Лесли Берк одержала победу в соревнованиях.
Оснований для враждебности по отношению друг к друг у Джесса и Лесли более чем достаточно, и тем не менее между ними завязывается дружба. Как тут не подружиться, если приходится быть королем и королевой в обнаруженном в лесу волшебном царстве?
-

Доп. информация

Бюджет: $60 000 000 | Сборы: $136 900 708 | Премьера: 10 февраля 2007-

Рейтинг PG — Parental guidance suggested. Детям рекомендуется смотреть фильм с родителями

Рекомендуется присутствие родителей. Некоторый материал, возможно, не подходит для детей. Данный рейтинг показывает, что оценённый фильм может содержать некоторые сцены, просмотр которых маленькими детьми мог бы не понравиться их родителям. Материал, который может присутствовать в фильме, должен быть объяснён и разобран с детьми прежде, чем им разрешают посетить фильм. Явные сексуальные сцены и сцены употребления наркотиков отсутствуют; нагота, если присутствует, то только очень ограниченно, ужас и насилие не превышают умеренного уровня.

Знаете ли вы, что...

• Первоначально роль Лесли была предложена Дакоте Фаннинг.
• Телевизионный сериал, который постоянно смотрят сёстры Джесса это «Ханна Монтана», также поставленный киностудией Disney. Песня «I Learned from You» из саундтрэка первого сезона этого сериала звучит и в фильме и тоже вошла в его саундтрэк. При этом в сериале её исполняют Майли Сайрус и её отец Билли Рэй Сайрус, а в версии, звучащей в фильме, одна Майли Сайрус.
• В сцене, где Джесс со своим отцом играют с игрушечной машиной, радио играет песню «You`ve Got to Keep Your Mind Wide Open» в исполнении Анны-Софии Робб.
• Животное, попавшее в ловушку в теплице это обыкновенный опоссум или щеткохвост, австралийское сумчатое, прижившееся в Новой Зеландии, где проходили съёмки фильма, и не встречающееся в Северной Америке.
• Последний фильм оператора Майкла Чэпмана.
• Дэвид Патерсон стал автором сценария и одним из продюсеров фильма. Повесть «Мост в Терабитию» была написана его матерью Кэтрин Патерсон и его имя упоминается на первой странице, где указано, что книга посвящается Дэвиду Паттерсону и Лизе Хилл. История, написанная Кэтрин Патерсон, основана на реальной дружбе её сына Дэвида и Лизы Хилл, погибшей от удара молнии, когда им было по восемь лет.
• В повести Кэтрин Патерсон действие происходит в 1977 году. В фильме оно перенесено на тридцать лет вперёд, в наши дни.
• Слово «Терабития» звучит очень похоже на название острова Терабинтия в Королевстве Нарния. Писательница не отрицает, что допустила такое совпадение намеренно. На этом сходства, впрочем, не прекращаются – съемки фильма проходили в Новой Зеландии, где также была создана киноадаптация «Хроник Нарнии», а работой над спецэффектами занималась WETA, компания, ответственная за визуальную составляющую «Властелина Колец» и «Хроник Нарнии».

Награды и премии

Сатурн, 2008 год
Номинации:
• Лучший молодой актер/актриса (Джош Хатчерсон)

MediaInfo

Общее
Уникальный идентификатор : 240282192950604578868818505678656767412 (0xB4C4AAC3D501E240A9DEF6D8FF4A05B4)
Полное имя : C:\Users\User\Desktop\Bridge.to.Terabithia.2007.HQRip-AVC[R.G.KINOvNINO].mkv
Формат : Matroska
Размер файла : 2,76 Гбайт
Продолжительность : 1 ч. 35 м.
Общий поток : 4137 Кбит/сек
Дата кодирования : UTC 2012-01-20 10:30:17
Программа кодирования : mkvmerge v4.6.0 ('Still Crazy After All These Years') сборка от Mar 10 2011 02:50:32
Библиотека кодирования : libebml v1.2.0 + libmatroska v1.1.0
Видео
Идентификатор : 1
Формат : AVC
Формат/Информация : Advanced Video Codec
Профиль формата : High@L3.1
Параметр CABAC формата : Да
Параметр ReFrames формата : 6 кадров
Режим смешивания : Header stripping
Идентификатор кодека : V_MPEG4/ISO/AVC
Продолжительность : 1 ч. 35 м.
Битрейт : 3113 Кбит/сек
Ширина : 1152 пикс.
Высота : 648 пикс.
Соотношение сторон : 16:9
Частота кадров : 23,976 кадр/сек
Цветовое пространство : YUV
Подвыборка цветности : 4:2:0
Битовая глубина : 8 бит
Тип развёртки : Прогрессивная
Бит/(Пиксели*Кадры) : 0.174
Размер потока : 2,02 Гбайт (73%)
Библиотека кодирования : x264 core 79 r1342kMod e8501ef
Настройки программы : cabac=1 / ref=6 / deblock=1:0:0 / analyse=0x3:0x111 / me=umh / subme=7 / psy=1 / psy_rd=1.0:0.0 / mixed_ref=1 / me_range=16 / chroma_me=1 / trellis=1 / 8x8dct=1 / cqm=0 / deadzone=21,11 / chroma_qp_offset=-2 / threads=6 / nr=0 / decimate=1 / mbaff=0 / constrained_intra=0 / bframes=2 / b_pyramid=0 / b_adapt=1 / b_bias=0 / direct=3 / wpredb=1 / wpredp=2 / keyint=250 / keyint_min=25 / scenecut=40 / rc_lookahead=50 / rc=2pass / mbtree=1 / bitrate=3113 / ratetol=1.0 / qcomp=0.60 / qpmin=10 / qpmax=51 / qpstep=4 / cplxblur=20.0 / qblur=0.5 / ip_ratio=1.40 / aq=1:1.00
Аудио #1
Идентификатор : 2
Формат : AC-3
Формат/Информация : Audio Coding 3
Расширение режима : CM (complete main)
Режим смешивания : Header stripping
Идентификатор кодека : A_AC3
Продолжительность : 1 ч. 35 м.
Вид битрейта : Постоянный
Битрейт : 384 Кбит/сек
Каналы : 6 каналов
Расположение каналов : Front: L C R, Side: L R, LFE
Частота : 48,0 КГц
Битовая глубина : 16 бит
Метод сжатия : С потерями
Размер потока : 262 Мбайт (9%)
Заголовок : Профессиональный (полное дублирование)
Язык : Russian
Аудио #2
Идентификатор : 3
Формат : AC-3
Формат/Информация : Audio Coding 3
Расширение режима : CM (complete main)
Режим смешивания : Header stripping
Идентификатор кодека : A_AC3
Продолжительность : 1 ч. 35 м.
Вид битрейта : Постоянный
Битрейт : 640 Кбит/сек
Каналы : 6 каналов
Расположение каналов : Front: L C R, Side: L R, LFE
Частота : 48,0 КГц
Битовая глубина : 16 бит
Метод сжатия : С потерями
Размер потока : 437 Мбайт (15%)
Заголовок : Оригинал
Язык : English
-Длительность: 01:35:31
Тех. данные: HQRip-AVC | MKV | Н.264 | AC3
Видео: 1152x648 | ~3113 kbps | 23.98 fps | 0.174 bit/pixel
Аудио #1: ~384 kbps | 48 kHz | 6 channels (Профессиональный (полное дублирование))
Аудио #2: ~640 kbps | 48 kHz | 6 channels (Оригинал)-

Скриншоты

[Торрент-статистика]
[Профиль]  [ЛС] 
Показать сообщения:    
Ответить на тему

Текущее время: Сегодня 23:43

Часовой пояс: GMT + 4



Вы не можете начинать темы
Вы не можете отвечать на сообщения
Вы не можете редактировать свои сообщения
Вы не можете удалять свои сообщения
Вы не можете голосовать в опросах
Вы не можете прикреплять файлы к сообщениям
Вы не можете скачивать файлы