День, когда Земля остановилась / The Day the Earth Stood Still (Скотт Дерриксон / Scott Derrickson) [2008 г., Фантастика, триллер, драма, BDRip] Dub

Ответить на тему
 
Автор
Сообщение

awk05 ®

Пол:

Стаж: 6 лет 4 месяца

Сообщений: 1348

Репутация: 275 [+] [-]

Откуда: Западная Украина Ривне

Пост 17-Янв-2014 06:03

[Цитировать] 

--День, когда Земля остановилась / The Day the Earth Stood Still--
Год выпуска: 2008
Страна: США
Жанр: фантастика, триллер, драма
Продолжительность: 01:43:35
Перевод: Профессиональный дубляж
Русские субтитры: форсированные, только на китайскую речь - вшитые--Режиссер: Скотт Дерриксон / Scott Derrickson--В ролях: Киану Ривз (Klaatu), Дженнифер Коннелли (Helen Benson), Кэти Бейтс (Regina Jackson), Джейден Смит (Jacob Benson), Джон Клиз (Professor Barnhardt), Джон Хэмм (Michael Granier), Кайл Чандлер (John Driscoll), Роберт Неппер (Colonel), Джеймс Хонг (Mr. Wu), Джон Ротмен (Dr. Myron), Сунита Прасад (Rouhani), Хуан Ридингер (William Kwan)--Дублёры: Александр Стёпин (Klaatu), Мария Цветкова-Овсянникова (Helen Benson), Мария Кузнецова (Regina Jackson), Денис Горбатенко (Jacob Benson), Виктор Костецкий (Professor Barnhardt), Артем Веселов (Michael Granier), Максим Сергеев (John Driscoll), Георгий Корольчук (Mr. Wu), Андрей Зайцев (Tom; Polygraph Operator), Борис Хасанов (Army Sergeant), Олег Алмазов (Dr. Ikegawa), Иван Паршин (Target Tech; State Trooper)--Описание: Об инопланетянине, который прибыл на нашу планету с предупреждением: если не будут прекращены войны и разрушения, Земля будет уничтожена извне, поскольку представляет угрозу для остальной Вселенной!--Качество: BDRip
Формат: AVI
Видео кодек: XviD
Аудио кодек: AC3
Видео: 720x304 (2.35:1), 23,976 кадра/сек, 1621 Кбит/сек,0.309 Бит/(Пиксели*Кадры)
Аудио: 6 каналов Front: L C R, Side: L R, LFE, 48,0 КГц, 384 Кбит/сек RUS - Dub-- --

MediaInfo

Общее
Полное имя : E:\Films\Den.kogda.Zemlya.ostanovilas.2008.XviD.BDRip.-AllFilms.avi
Формат : AVI
Формат/Информация : Audio Video Interleave
Размер файла : 1,46 Гбайт
Продолжительность : 1 ч. 43 м.
Общий поток : 2014 Кбит/сек
Название фильма : День, когда Земля остановилась / The Day the Earth Stood Still [2008] BDRip
Режиссёр : Юpист
Жанр : фантастика, триллер, драма
Программа кодирования : VirtualDubMod 1.5.10.3 | www.virtualdub-fr.org || (build 2550/release)
Библиотека кодирования : VirtualDubMod build 2550/release
Правообладатель : RG All films [rutracker.org]
Примечание : «День, когда остановилась Земля» — кинофильм, фантастическая драма режиссёра Скотта Дерриксона, ремейк одноимённого блокбастера 1951 года.
Видео
Идентификатор : 0
Формат : MPEG-4 Visual
Профиль формата : Advanced Simple@L5
Параметр BVOP формата : 1
Параметр QPel формата : Нет
Параметр GMC формата : Без точки перехода
Параметр матрицы формата : Выборочная
Идентификатор кодека : XVID
Идентификатор кодека/Подсказка : XviD
Продолжительность : 1 ч. 43 м.
Битрейт : 1621 Кбит/сек
Ширина : 720 пикселей
Высота : 304 пикселя
Соотношение сторон : 2,35:1
Частота кадров : 23,976 кадра/сек
Цветовое пространство : YUV
Субдискретизация насыщенности : 4:2:0
Битовая глубина : 8 бит
Тип развёртки : Прогрессивная
Метод сжатия : С потерями
Бит/(Пиксели*Кадры) : 0.309
Размер потока : 1,17 Гбайт (80%)
Библиотека кодирования : XviD 73
Аудио
Идентификатор : 1
Формат : AC-3
Формат/Информация : Audio Coding 3
Расширение режима : CM (complete main)
Параметр Endianness формата : Big
Идентификатор кодека : 2000
Продолжительность : 1 ч. 43 м.
Вид битрейта : Постоянный
Битрейт : 384 Кбит/сек
Каналы : 6 каналов
Расположение каналов : Front: L C R, Side: L R, LFE
Частота : 48,0 КГц
Битовая глубина : 16 бит
Метод сжатия : С потерями
Размер потока : 284 Мбайт (19%)
Выравнивание : Разделение по промежуткам
Продолжительность промежутка : 42 мс. (1,00 видеокадр)
Время предзагрузки промежутка : 500 мс.
Заголовок : RUS - Dub

Знаете ли Вы, что...

Партия доктора Хелен Бенсон писалась специально под Дженнифер Коннели.
Скотт Дерриксон - поклонник режиссера Роберта Уайза. Ремейк «Дня, когда Земля остановилась» он мечтал снять с 1993 года.
Киану Ривз был единственным актером, которого продюсер Эрвин Строфф хотел видеть в роли Клаату.
Имя доктора Бэнхарда - Бэзил. Это отсылка к знаменитому персонажу Джона Клиза - управляющему отелем Бэзилу Фолти (Basil Fawlty) из телесериала «Отель «Башни Фолти» («Fawlty Towers»).
На съемочной площадке Дерриксона было место и импровизации. Так, к примеру, сцену в которой инопланетного гостя усадили на стул и заставили проходить тестирование на детекторе лжи, изобрел Киану Ривз. Вопросы и ответы этого тестирования также придумал он.
Когда Клаату ранят и робот начинает все уничтожать, герой Киану Ривза произносит: «Клаату, Берата, Никту», для остановки робота. Эти же слова необходимо было произнести и в оригинальном фильме для остановки робота или же его запуска.
В сцене, когда Клаату дописывает на доске формулы для ученого, Киану Ривз пишет правой рукой. На самом деле, он левша. Видимо, это было сделано для большего сходства с оригинальным фильмом 1951 года, где Клаату также дописывал на доске формулу и делал это правой рукой.
Персонаж Джайдена Смита (Джейкоб) играет на ноутбуке в игру «World of Warcraft».
В сцене встречи Клаату со своим земляком в ресторане McDonald’s Киану Ривз разговаривает на одном из диалектов китайского языка, так называемом путунхуа - официальном языке Китайской Народной Республики.
«Клаату, Берата, Никту» - это слова которые необходимо было произнести герою Брюса Кембела в кинофильме «Армия тьмы», да бы мертвые не преследовали его.

_________________
[Торрент-статистика]
[Профиль]  [ЛС] 
Показать сообщения:    
Ответить на тему

Текущее время: Сегодня 23:57

Часовой пояс: GMT + 4



Вы не можете начинать темы
Вы не можете отвечать на сообщения
Вы не можете редактировать свои сообщения
Вы не можете удалять свои сообщения
Вы не можете голосовать в опросах
Вы не можете прикреплять файлы к сообщениям
Вы не можете скачивать файлы