В плену / Last Day of Summer (Влад Юдин / Vlad Yudin) [2009 г., Драма, комедия, BDRip-AVC] MVO+SUB

Ответить на тему
 
Автор
Сообщение

jons3 ®

Стаж: 3 года 7 месяцев

Сообщений: 157

Репутация: 66 [+] [-]

Пост 20-Сен-2014 23:50

[Цитировать] 

В плену / Last Day of SummerГод выпуска: 2009
Страна: США
Жанр: Драма, комедия
Продолжительность: 01:25:13
Перевод: Профессиональный [многоголосый]
Субтитры: Английские
Режиссер: Влад Юдин / Vlad Yudin
В ролях: ДиДжей Куаллс, Никки Рид, Уильям Сэдлер, Крис Башинелли, Э.Дж. Кэрролл, Джейсон Круз, Кристофер Джеймс Каллен, Хизер Дилли, Лоуренс Вини
Описание: Эта непредсказуемая история о работнике службы быстрого питания, Джо. Парню все уже изрядно надоело, его постоянно изводит шеф и терпеть это уже просто невозможно. В конце концов, в последний день лета, Джо решает отомстить своему боссу, но его планы неожиданно рушатся, когда он ловит на себе взгляд красивой девушки. Тогда он решает похитить ее…

Тип релиза: BDRip-AVC
Контейнер: MKV
Видео кодек: H264 (AVC)
Аудио кодек: AC3 (Dolby Digital)
Видео: 1895 Кбит/с, 1024х436, 23.976 кадр/с
Аудио: Русский, английский (AС3, 6 ch, 384 Кбит/с)

MediaInfo

--------------------------------------------------------------------------
x264 [info]: frame I:1139 Avg QP:14.45 size: 69753
x264 [info]: frame P:24809 Avg QP:17.06 size: 21472
x264 [info]: frame B:96664 Avg QP:18.29 size: 6153
--------------------------------------------------------------------------
Полное имя : V.Pleny.2009.x264.BDRip.(AVC).0ptimus.mkv
Формат : Matroska
Версия формата : Version 4 / Version 2
Размер файла : 1,58 Гбайт
Продолжительность : 1 ч. 25 м.
Общий поток : 2658 Кбит/сек
Название фильма : В плену / Last Day of Summer [2009] -=BDRip (AVC) by 0ptimus=-
Дата кодирования : UTC 2013-03-03 05:47:05
Программа кодирования : mkvmerge v6.1.0 ('Old Devil') built on Mar 2 2013 14:32:37
Библиотека кодирования : libebml v1.3.0 + libmatroska v1.4.0
Видео
Идентификатор : 1
Формат : AVC
Формат/Информация : Advanced Video Codec
Профиль формата : High@L4.1
Параметр CABAC формата : Да
Параметр ReFrames формата : 8 кадров
Идентификатор кодека : V_MPEG4/ISO/AVC
Битрейт : 1895 Кбит/сек
Ширина : 1024 пикселя
Высота : 436 пикселей
Соотношение сторон : 2,35:1
Режим частоты кадров : Переменный
Частота кадров в оригинале : 23,976 кадра/сек
Цветовое пространство : YUV
Субдискретизация насыщенности : 4:2:0
Битовая глубина : 8 бит
Тип развёртки : Прогрессивная
Бит/(Пиксели*Кадры) : 0.177
Заголовок : Rip by 0ptimus
Библиотека кодирования : x264 core 129 r2245 bc13772
Настройки программы : cabac=1 / ref=8 / deblock=1:-3:-2 / analyse=0x3:0x113 / me=umh / subme=10 / psy=1 / psy_rd=1.00:0.20 / mixed_ref=1 / me_range=32 / chroma_me=1 / trellis=2 / 8x8dct=1 / cqm=0 / deadzone=21,11 / fast_pskip=0 / chroma_qp_offset=-3 / threads=3 / lookahead_threads=1 / sliced_threads=0 / nr=0 / decimate=0 / interlaced=0 / bluray_compat=0 / constrained_intra=0 / bframes=6 / b_pyramid=2 / b_adapt=2 / b_bias=0 / direct=3 / weightb=1 / open_gop=0 / weightp=2 / keyint=240 / keyint_min=23 / scenecut=40 / intra_refresh=0 / rc_lookahead=40 / rc=2pass / mbtree=0 / bitrate=1895 / ratetol=1.0 / qcomp=0.60 / qpmin=0 / qpmax=69 / qpstep=4 / cplxblur=20.0 / qblur=0.5 / vbv_maxrate=50000 / vbv_bufsize=50000 / nal_hrd=none / ip_ratio=1.40 / pb_ratio=1.30 / aq=1:1.00
Язык : English
Default : Да
Forced : Да
Аудио #1
Идентификатор : 2
Формат : AC-3
Формат/Информация : Audio Coding 3
Расширение режима : CM (complete main)
Параметр Endianness формата : Big
Идентификатор кодека : A_AC3
Продолжительность : 1 ч. 25 м.
Вид битрейта : Постоянный
Битрейт : 384 Кбит/сек
Каналы : 6 каналов
Расположение каналов : Front: L C R, Side: L R, LFE
Частота : 48,0 КГц
Битовая глубина : 16 бит
Метод сжатия : С потерями
Размер потока : 234 Мбайт (14%)
Заголовок : Многоголосый закадровый
Язык : Russian
Default : Да
Forced : Да
Аудио #2
Идентификатор : 3
Формат : AC-3
Формат/Информация : Audio Coding 3
Расширение режима : CM (complete main)
Параметр Endianness формата : Big
Идентификатор кодека : A_AC3
Продолжительность : 1 ч. 25 м.
Вид битрейта : Постоянный
Битрейт : 384 Кбит/сек
Каналы : 6 каналов
Расположение каналов : Front: L C R, Side: L R, LFE
Частота : 48,0 КГц
Битовая глубина : 16 бит
Метод сжатия : С потерями
Размер потока : 234 Мбайт (14%)
Язык : English
Default : Нет
Forced : Нет
Текст
Идентификатор : 4
Формат : UTF-8
Идентификатор кодека : S_TEXT/UTF8
Идентификатор кодека/Информация : UTF-8 Plain Text
Язык : English
Default : Нет
Forced : Нет
Меню
00:00:00.000 : en:Chapter 1
00:06:59.961 : en:Chapter 2
00:15:59.959 : en:Chapter 3
00:23:59.938 : en:Chapter 4
00:31:59.959 : en:Chapter 5
00:39:59.980 : en:Chapter 6
00:47:59.918 : en:Chapter 7
00:55:59.898 : en:Chapter 8
01:03:59.919 : en:Chapter 9
01:09:59.945 : en:Chapter 10
01:14:59.912 : en:Chapter 11
01:19:59.920 : en:Chapter 12

Скриншоты




Релиз от:
[Торрент-статистика]
[Профиль]  [ЛС] 
Показать сообщения:    
Ответить на тему

Текущее время: Сегодня 07:00

Часовой пояс: GMT + 4



Вы не можете начинать темы
Вы не можете отвечать на сообщения
Вы не можете редактировать свои сообщения
Вы не можете удалять свои сообщения
Вы не можете голосовать в опросах
Вы не можете прикреплять файлы к сообщениям
Вы не можете скачивать файлы