Дом спящих красавиц / Das Haus der schlafenden Schonen (Вадим Гловна / Vadim Glowna)[2006 г., Триллер, драма, DVDRip] MVO + Original

Ответить на тему
 
Автор
Сообщение

awk05 ®

Пол:

Стаж: 5 лет 10 месяцев

Сообщений: 1352

Репутация: 275 [+] [-]

Откуда: Западная Украина Ривне

Пост 14-Июл-2014 18:59

[Цитировать] 

--Дом спящих красавиц / Das Haus der schlafenden Schonen -- Год выпуска: 2006
Производство: Германия
Жанр: Триллер, драма
Продолжительность: 01:38:59
Перевод: Профессиональный многоголосый
Субтитры: Отсутствуют--Режиссер: Вадим Гловна / Vadim Glowna--Актеры: Вадим Гловна (Edmond), Ангела Винклер (Madame), Максимилиан Шелл (Kogi), Бироль Юнель (Herr Gold), Мона Гласс (Sekretärin), Марина Вайс-Бургаслиева (Hausmädchen), Беньямин Кабук (Bänkelsänger), Peter Luppa (Prediger), Мария Бергхардт (Schlafende Schöne), Линда Эльснер (Schlafende Schöne), ...--Описание фильма: Эдмон, богатый предприниматель конца 60-х, полностью отчаялся. В автокатастрофе 15 лет назад он убил свою жену и дочь и находится в сильной депрессии. Единственная отрада в его мрачном существовании — это таинственный дом, своего рода бордель, специализированный для пожилых клиентов. Там они могут переночевать с красивыми молодыми женщинами.--Качество видео: DVDRip
Формат видео: AVI
Видео кодек: MPEG4, XviD
Аудио кодек: AC-3
Видео: MPEG4, XviD, 720x304 (2.35:1), 25.000 fps, 2 053 Kbps (0.384 bit/pixel)
Аудио 1: AC-3, 48.0 KHz, 6 ch, 448 Kbps, CBR, 16 бит [RUS]
Аудио 2: AC-3, 48.0 KHz, 6 ch, 448 Kbps, CBR, 16 бит [GER] -- --ВНИМАНИЕ!!! Запрещен к просмотру, лицам младше 18 лет!

Скриншоты

Тех. данные (MI)

Общее
Полное имя : C:\NNM\Дом спящих красавиц\Dom krasavec 2006 DVDRip.avi
Формат : AVI
Формат/Информация : Audio Video Interleave
Профиль формата : OpenDML
Размер файла : 2,05 Гбайт
Продолжительность : 1 ч. 38 м.
Общий поток : 2968 Кбит/сек
Программа кодирования : VirtualDubMod 1.5.10.2 (build 2540/release)
Библиотека кодирования : VirtualDubMod build 2540/release
Видео
Идентификатор : 0
Формат : MPEG-4 Visual
Профиль формата : Advanced Simple@L5
Параметр BVOP формата : 1
Параметр QPel формата : Нет
Параметр GMC формата : Без точки перехода
Параметр матрицы формата : Выборочная
Идентификатор кодека : XVID
Идентификатор кодека/Подсказка : XviD
Продолжительность : 1 ч. 38 м.
Битрейт : 2053 Кбит/сек
Ширина : 704 пикселя
Высота : 304 пикселя
Соотношение сторон : 2,35:1
Частота кадров : 25,000 кадров/сек
Цветовое пространство : YUV
Субдискретизация насыщенности : 4:2:0
Битовая глубина : 8 бит
Тип развёртки : Прогрессивная
Метод сжатия : С потерями
Бит/(Пиксели*Кадры) : 0.384
Размер потока : 1,42 Гбайт (69%)
Библиотека кодирования : XviD 73
Аудио #1
Идентификатор : 1
Формат : AC-3
Формат/Информация : Audio Coding 3
Расширение режима : CM (complete main)
Идентификатор кодека : 2000
Продолжительность : 1 ч. 38 м.
Вид битрейта : Постоянный
Битрейт : 448 Кбит/сек
Каналы : 6 каналов
Расположение каналов : Front: L C R, Side: L R, LFE
Частота : 48,0 КГц
Битовая глубина : 16 бит
Метод сжатия : С потерями
Размер потока : 317 Мбайт (15%)
Выравнивание : Разделение по промежуткам
Продолжительность промежутка : 40 мс. (1,00 видеокадр)
Время предзагрузки промежутка : 500 мс.
Аудио #2
Идентификатор : 2
Формат : AC-3
Формат/Информация : Audio Coding 3
Расширение режима : CM (complete main)
Идентификатор кодека : 2000
Продолжительность : 1 ч. 38 м.
Вид битрейта : Постоянный
Битрейт : 448 Кбит/сек
Каналы : 6 каналов
Расположение каналов : Front: L C R, Side: L R, LFE
Частота : 48,0 КГц
Битовая глубина : 16 бит
Метод сжатия : С потерями
Размер потока : 317 Мбайт (15%)
Выравнивание : Разделение по промежуткам
Продолжительность промежутка : 40 мс. (1,00 видеокадр)
Время предзагрузки промежутка : 500 мс.

_________________
[Торрент-статистика]
[Профиль]  [ЛС] 
Показать сообщения:    
Ответить на тему

Текущее время: Сегодня 06:52

Часовой пояс: GMT + 4



Вы не можете начинать темы
Вы не можете отвечать на сообщения
Вы не можете редактировать свои сообщения
Вы не можете удалять свои сообщения
Вы не можете голосовать в опросах
Вы не можете прикреплять файлы к сообщениям
Вы не можете скачивать файлы