Спи со мной / Lie with Me (Клеман Вирго / Clément Virgo) [2005 г., Мелодрама, драма, эротика, DVDRip] MVO + Original + sub

Ответить на тему
 
Автор
Сообщение

awk05 ®

Пол:

Стаж: 5 лет 10 месяцев

Сообщений: 1352

Репутация: 275 [+] [-]

Откуда: Западная Украина Ривне

Пост 13-Май-2014 14:34

[Цитировать] 

--Спи со мной / Lie with me-- Год выпуска: 2005
Страна: Канада, Conquering Lion Productions
Жанр: Мелодрама, драма, эротика
Продолжительность: 01:29:05
Перевод: Профессиональный (двухголосый, закадровый)
Русские субтитры: есть (внешние)--Режиссер: Клемент Вирго /Clement Virgo--В ролях: Лорен Ли Смит (Leila), Эрик Бальфур (David), Полли Шеннон (Victoria), Мэйко Нгуйен (Victoria's Friend), Майкл Фаччоло (Shy Guy), Кейт Линч (Marla), Рон Уайт (Ben), Кристин Леман (Rachel), ...--Описание: Лейла — сексуально активная молодая женщина, которая привыкла встречаться с мужчинами исключительно ради быстрого секса. На одной вечеринке она сталкивается с Дэвидом, и между ними с первого же взгляда вспыхивает страстное влечение друг к другу. Лейла и Дэвид быстро оказываются в одной постели. Для них, как и для многих других представителей их поколения, секс — это форма общения. Однако вскоре Лейла начинает осознавать, что ее отношение к Дэвиду не похоже на ее прежние связи, причем Дэвид настроен не менее серьезно. Впервые в жизни они ощущают потребности и желания, которые выходят за рамки физиологического влечения: теперь им важна эмоциональная близость.
Доп. информация: Фильм откровенно сексуален, актеры на съемках не всегда «играли». Входит в список фильмов запрещенных к распространению на территории Республики Беларусь.--Не рекомендуется просмотр детям и подросткам моложе 16 лет.--Качество видео:DVDRip
Формат видео: AVI
Видео кодек: MPEG4, XviD
Аудио кодек: AC3
Видео: MPEG4, XviD, 720x400 (16:9), 25.000 fps, 1 889 Kbps (0.262 bit/pixel)
Аудио 1: AC-3, 48.0 KHz, 6 ch, 448 Kbps, CBR[RUS]
Аудио 2: AC-3, 48.0 KHz, 6 ch, 448 Kbps, CBR[ENG] ОТДЕЛЬНО-- --

Тех. данные (MI)

Общее
Полное имя : G:\тест\Spi.so.mnoy.2005\Spi.so.mnoy.2005.avi
Формат : AVI
Формат/Информация : Audio Video Interleave
Размер файла : 1,46 Гбайт
Продолжительность : 1 ч. 29 м.
Общий поток : 2347 Кбит/сек
Режиссёр : zim2001
Программа кодирования : VirtualDubMod 1.5.10.2 (build 2540/release)
Видео
Идентификатор : 0
Формат : MPEG-4 Visual
Профиль формата : Advanced Simple@L5
Параметр BVOP формата : 1
Параметр QPel формата : Нет
Параметр GMC формата : Без точки перехода
Параметр матрицы формата : Выборочная
Идентификатор кодека : XVID
Идентификатор кодека/Подсказка : XviD
Продолжительность : 1 ч. 29 м.
Битрейт : 1889 Кбит/сек
Ширина : 720 пикселей
Высота : 400 пикселей
Соотношение сторон : 16:9
Частота кадров : 25,000 кадров/сек
Цветовое пространство : YUV
Субдискретизация насыщенности : 4:2:0
Битовая глубина : 8 бит
Тип развёртки : Прогрессивная
Метод сжатия : С потерями
Бит/(Пиксели*Кадры) : 0.262
Размер потока : 1,18 Гбайт (80%)
Библиотека кодирования : XviD 1.2.1 (UTC 2008-12-04)
Аудио
Идентификатор : 1
Формат : AC-3
Формат/Информация : Audio Coding 3
Расширение режима : CM (complete main)
Параметр Endianness формата : Big
Идентификатор кодека : 2000
Продолжительность : 1 ч. 29 м.
Вид битрейта : Постоянный
Битрейт : 448 Кбит/сек
Каналы : 6 каналов
Расположение каналов : Front: L C R, Side: L R, LFE
Частота : 48,0 КГц
Битовая глубина : 16 бит
Метод сжатия : С потерями
Размер потока : 285 Мбайт (19%)
Выравнивание : Разделение по промежуткам
Продолжительность промежутка : 40 мс. (1,00 видеокадр)
Время предзагрузки промежутка : 500 мс.
Аудио
Формат : AC-3
Формат/Информация : Audio Coding 3
Расширение режима : CM (complete main)
Параметр Endianness формата : Big
Продолжительность : 1 ч. 29 м.
Вид битрейта : Постоянный
Битрейт : 448 Кбит/сек
Каналы : 6 каналов
Расположение каналов : Front: L C R, Side: L R, LFE
Частота : 48,0 КГц
Битовая глубина : 16 бит
Метод сжатия : С потерями
Размер потока : 285 Мбайт (100%)

_________________
[Торрент-статистика]
[Профиль]  [ЛС] 
Показать сообщения:    
Ответить на тему

Текущее время: Сегодня 08:39

Часовой пояс: GMT + 4



Вы не можете начинать темы
Вы не можете отвечать на сообщения
Вы не можете редактировать свои сообщения
Вы не можете удалять свои сообщения
Вы не можете голосовать в опросах
Вы не можете прикреплять файлы к сообщениям
Вы не можете скачивать файлы