Туристас / Turistas (Джон Стокуэлл) [2006, Ужасы, триллер, HQRip-AVC]

Ответить на тему
 
Автор
Сообщение

diim ®

Пол:

Стаж: 3 года 8 месяцев

Сообщений: 1033

Репутация: 112 [+] [-]

Пост 28-Дек-2011 17:33

[Цитировать] 

Туристас / TuristasГод выпуска: 2006
Страна: США
Слоган: «Один момент может изменить все...»
Жанр: Ужасы, триллер
Продолжительность: 01:33:03
Перевод: Профессиональный (дубляж)
Субтитры: Русские-Режиссёр: Джон Стокуэлл
Сценарист: Майкл Росс
Продюсер: Марк Бутан, Рубрия Марчинс Неграо, Дилан Расселл
Оператор: Энрике Шедьяк
Композитор: Пол Хаслингер
В ролях: Джош Дюамель, Мелисса Джордж, Оливия Уайлд, Дэсмонд Эскью, Бо Гарретт, Макс Браун, Аглес Стайб, Мигель Лунарди, Хорхе Со, Кристиани Апарекида-Описание: Компания студентов решила провести каникулы, путешествуя по Бразилии. Экзотические пейзажи, красивые животные, интересные встречи — ничто не предвещало беды. Неожиданно у затерянного острова близ бразильского побережья их автобус терпит крушение, и молодые люди остаются один на один с джунглями. Труднопроходимые тропические леса хранят свои секреты. Туристы становятся жертвами кровавых экспериментов засекреченной военной группы.-Рейтинг MPAA: Рейтинг R (Подростки до 17 лет допускаются на фильм только в сопровождении одного из родителей)
Мировая премьера: 1 декабря 2006
Премьера в России: 7 декабря 2006
Бюджет: $10 000 000
Кассовые сборы: $14 321 070-Качество: HQRip-AVC
Формат: MKV
Видео кодек: AVC
Аудио кодек: DTS
Видео: 1026x436,AVC,x264,2928 Кбит/сек,23,976 кадр/сек,0.273 Бит/(Пиксели*Кадры)
Аудио #1: 1510 Кбит/сек,6 канала(ов),48,0 КГц [Профессиональный (дубляж)]
Субтитры: Русские-Сэмпл

Скриншоты

MediaInfo

General
Unique ID : 215572787718966866398146416496084679827 (0xA22DCF076042D069B0C46B1B531A7C93)
Complete name : Turistas.2006.mkv
Format : Matroska
Format version : Version 2
File size : 2.96 GiB
Duration : 1h 33mn
Overall bit rate : 4 528 Kbps
Movie name : Rip by Romeo (FLINTFILMS.RU)
Encoded date : UTC 2010-03-14 17:45:18
Writing application : mkvmerge v3.2.0 ('Beginnings') built on Feb 12 2010 16:46:17
Writing library : libebml v0.7.9 + libmatroska v0.8.1
Video
ID : 1
Format : AVC
Format/Info : Advanced Video Codec
Format profile : Baseline@L5.1
Format settings, CABAC : No
Format settings, ReFrames : 1 frame
Format settings, GOP : M=1, N=12
Codec ID : V_MPEG4/ISO/AVC
Duration : 1h 33mn
Bit rate : 2 928 Kbps
Width : 1 026 pixels
Height : 436 pixels
Display aspect ratio : 2.35:1
Frame rate : 23.976 fps
Color space : YUV
Chroma subsampling : 4:2:0
Bit depth : 8 bits
Scan type : Progressive
Bits/(Pixel*Frame) : 0.273
Stream size : 1.91 GiB (65%)
Language : English
Audio
ID : 3
Format : DTS
Format/Info : Digital Theater Systems
Codec ID : A_DTS
Duration : 1h 33mn
Bit rate mode : Constant
Bit rate : 1 510 Kbps
Channel(s) : 6 channels
Channel positions : Front: L C R, Side: L R, LFE
Sampling rate : 48.0 KHz
Bit depth : 24 bits
Compression mode : Lossy
Stream size : 1 011 MiB (33%)
Title : Профессиональный (полное дублирование) DTS 5.1 1536 kbps
Language : Russian
Text #1
ID : 2
Format : UTF-8
Codec ID : S_TEXT/UTF8
Codec ID/Info : UTF-8 Plain Text
Text #2
ID : 4
Format : UTF-8
Codec ID : S_TEXT/UTF8
Codec ID/Info : UTF-8 Plain Text
Title : Русские
Language : Russian
[Торрент-статистика]
[Профиль]  [ЛС] 
Показать сообщения:    
Ответить на тему

Текущее время: Сегодня 06:52

Часовой пояс: GMT + 4



Вы не можете начинать темы
Вы не можете отвечать на сообщения
Вы не можете редактировать свои сообщения
Вы не можете удалять свои сообщения
Вы не можете голосовать в опросах
Вы не можете прикреплять файлы к сообщениям
Вы не можете скачивать файлы