Идеальный побег / A Perfect Getaway (Дэвид Туи) [2009, Триллер, детектив, HQRip-AVC]

Ответить на тему
 
Автор
Сообщение

diim ®

Пол:

Стаж: 3 года 8 месяцев

Сообщений: 1033

Репутация: 112 [+] [-]

Пост 28-Дек-2011 17:28

[Цитировать] 

Идеальный побег / A Perfect GetawayГод выпуска: 2009
Страна: США
Слоган: «6 незнакомцев. 2 киллера. Ни одного шанса спастись.»
Жанр: Триллер, детектив
Продолжительность: 01:37:07
Перевод: Профессиональный (дубляж) + Оригинальная звуковая дорожка
Субтитры: Русские, Английские-Режиссёр: Дэвид Туи
Сценарист: Дэвид Туи
Продюсер: Райан Кэвэна, Такер Тули, Робби Бреннер
Оператор: Марк Пламмер
Композитор: Борис Элькис
В ролях: Стив Зан, Тимоти Олифант, Милла Йовович, Киле Санчез, Марли Шелтон, Крис Хемсворт, Энтони Руйвивар, Дейл Дикки, Питер Нэви Туясосопо, Венди Браун-Описание: Медовый месяц — самое счастливое время для молодоженов. Они — красивая пара, добившаяся успеха в жизни и впереди ожидающая только счастья и радости! Их свадебное путешествие на Гавайи похоже на сказку. Правда, все это омрачается грозными сообщениями о том, что на острове, куда они отправились, орудуют серийные убийцы.-Рейтинг MPAA: Рейтинг R (Подростки до 17 лет допускаются на фильм только в сопровождении одного из родителей)
Мировая премьера: 6 августа 2009
Премьера в России: 3 сентября 2009
Бюджет: $14 000 000
Кассовые сборы: $22 852 638-Качество: HQRip-AVC
Формат: MKV
Видео кодек: H264 (AVC)
Аудио кодек: AC3 (Dolby Digital)
Видео: 1024 x 432, (2,35:1), 23,976 fps, ~ 2985 Кбит/сек
Аудио #1: 48 kHz, 3/2 (L,C,R,l,r) + LFE ch, ~384 kbps [Профессиональный (дубляж)]
Аудио #2: 48 kHz, 3/2 (L,C,R,l,r) + LFE ch, ~448kbps [Оригинальная звуковая дорожка]- (Отдельно)
Субтитры: Русские, Английские-Сэмпл

Скриншоты

Знаете ли Вы, что...

Фильм снимали в Пуэрто Рико, на Гавайях и Ямайке.

MediaInfo

General
Unique ID : 192436069502455850371749598052418487256 (0x90C5D6BFC2127019ADA707C122E683D8)
Complete name : Ideal'nii pobeg.mkv
Format : Matroska
Format version : Version 2
File size : 2.29 GiB
Duration : 1h 37mn
Overall bit rate : 3 369 Kbps
Encoded date : UTC 2011-01-26 15:38:33
Writing application : mkvmerge v4.4.0 ('Die Wiederkehr') сборка от Dec 25 2010 23:32:50
Writing library : libebml v1.0.0 + libmatroska v1.0.0
Video
ID : 1
Format : AVC
Format/Info : Advanced Video Codec
Format profile : High@L4.1
Format settings, CABAC : Yes
Format settings, ReFrames : 12 frames
Muxing mode : Header stripping
Codec ID : V_MPEG4/ISO/AVC
Duration : 1h 37mn
Bit rate : 2 985 Kbps
Width : 1 024 pixels
Height : 432 pixels
Display aspect ratio : 2.35:1
Frame rate : 23.976 fps
Color space : YUV
Chroma subsampling : 4:2:0
Bit depth : 8 bits
Scan type : Progressive
Bits/(Pixel*Frame) : 0.281
Stream size : 1.98 GiB (87%)
Writing library : x264 core 112 r1834 a51816a
Encoding settings : cabac=1 / ref=12 / deblock=1:-3:-2 / analyse=0x3:0x133 / me=umh / subme=10 / psy=1 / psy_rd=1.10:0.20 / mixed_ref=1 / me_range=48 / chroma_me=1 / trellis=2 / 8x8dct=1 / cqm=0 / deadzone=21,11 / fast_pskip=1 / chroma_qp_offset=-6 / threads=6 / sliced_threads=0 / nr=0 / decimate=1 / interlaced=0 / constrained_intra=0 / bframes=12 / b_pyramid=2 / b_adapt=2 / b_bias=0 / direct=3 / weightb=1 / open_gop=2 / weightp=2 / keyint=250 / keyint_min=23 / scenecut=40 / intra_refresh=0 / rc_lookahead=40 / rc=2pass / mbtree=1 / bitrate=2985 / ratetol=1.0 / qcomp=0.65 / qpmin=0 / qpmax=51 / qpstep=4 / cplxblur=20.0 / qblur=0.5 / vbv_maxrate=50000 / vbv_bufsize=62500 / ip_ratio=1.35 / aq=2:0.90 / zones=133644,139753,q=30 / nal_hrd=none
Audio
ID : 2
Format : AC-3
Format/Info : Audio Coding 3
Mode extension : CM (complete main)
Muxing mode : Header stripping
Codec ID : A_AC3
Duration : 1h 37mn
Bit rate mode : Constant
Bit rate : 384 Kbps
Channel(s) : 6 channels
Channel positions : Front: L C R, Side: L R, LFE
Sampling rate : 48.0 KHz
Bit depth : 16 bits
Compression mode : Lossy
Stream size : 267 MiB (11%)
Title : Dub
Language : Russian
Text #1
ID : 3
Format : UTF-8
Codec ID : S_TEXT/UTF8
Codec ID/Info : UTF-8 Plain Text
Title : Rus
Language : Russian
Text #2
ID : 4
Format : UTF-8
Codec ID : S_TEXT/UTF8
Codec ID/Info : UTF-8 Plain Text
Title : Eng
Language : English
[Торрент-статистика]
[Профиль]  [ЛС] 
Показать сообщения:    
Ответить на тему

Текущее время: Сегодня 13:17

Часовой пояс: GMT + 4



Вы не можете начинать темы
Вы не можете отвечать на сообщения
Вы не можете редактировать свои сообщения
Вы не можете удалять свои сообщения
Вы не можете голосовать в опросах
Вы не можете прикреплять файлы к сообщениям
Вы не можете скачивать файлы