Стрелок / Shooter (Антуан Фукуа / Antoine Fuqua) [2007 г., Боевик, триллер, криминал, детектив, BDRip-AVC] Dub + Eng, Subs (Rus + Eng)

Ответить на тему
 
Автор
Сообщение

awk05 ®

Пол:

Стаж: 5 лет 8 месяцев

Сообщений: 1352

Репутация: 275 [+] [-]

Откуда: Западная Украина Ривне

Пост 17-Фев-2014 08:33

[Цитировать] 

--Стрелок / Shooter«Раньше он верил в справедливость. Теперь - в возмездие.»-- Год выпуска: 2007
Страна: США
Жанр: Боевик, триллер, криминал, детектив
Продолжительность: 02:05:41
Перевод: Профессиональный (полное дублирование)
Субтитры: русские (2 вида), английские.--Режиссер: Антуан Фукуа / Antoine Fuqua--В ролях: Марк Уолберг (Bob Lee Swagger), Майкл Пенья (Nick Memphis), Дэнни Гловер (Colonel Isaac Johnson), Кейт Мара (Sarah Fenn), Элиас Котеас (Jack Payne), Рона Митра (Alourdes Galindo), Джонатан Уолкер (Louis Dobbler), Джастин Луис (Howard Purnell), Тейт Донован (Russ Turner), Раде Шербеджия (Michael Sandor), Алан С. Петерсон (Officer Stanley Timmons), Нед Битти (Senator Charles F. Meachum)
)--Описание: Опытный снайпер Бобби, работающий в ФБР, оказывается втянутым в заговор с целью убийства президента. Похоже, что его хотят подставить и «сдать» властям, поэтому ему необходимо как можно быстрее найти и обезвредить настоящего убийцу…--Качество: BDRip-AVC
Формат: MKV
Видео кодек: AVC (High@L4.1)
Аудио кодек: AC3
Видео: 960x400 (2.40:1 ); 2257 Кбит/сек; 23,976 кадра/сек; 0.245 Бит/(Пиксели*Кадры)
Аудио: 48 КГц, AC3 Dolby Digital, 3/2 (L,C,R,l,r) + LFE ch, ~448.00 Кбит/сек, 16 бит [RUS]
Аудио: 48 КГц, AC3 Dolby Digital, 3/2 (L,C,R,l,r) + LFE ch, ~448.00 Кбит/сек, 16 бит [ENG]
Навигация по главам: есть-- --

Mi

General
Unique ID : 176586573566492723721620680619653221516 (0x84D95644606BBC70B1D31419F7EA4C8C)
Complete name : D:\Shooter.2007.BDRip-AVC.Froloff777.mkv
Format : Matroska
File size : 2.75 GiB
Duration : 2h 5mn
Overall bit rate : 3 135 Kbps
Encoded date : UTC 2011-11-06 07:37:24
Writing application : mkvmerge v4.9.1 ('Ich will') built on Aug 10 2011 09:31:20
Writing library : libebml v1.2.1 + libmatroska v1.2.0
Video
ID : 1
Format : AVC
Format/Info : Advanced Video Codec
Format profile : High@L4.1
Format settings, CABAC : Yes
Format settings, ReFrames : 9 frames
Codec ID : V_MPEG4/ISO/AVC
Duration : 2h 5mn
Bit rate : 2 257 Kbps
Width : 960 pixels
Height : 400 pixels
Display aspect ratio : 2.40:1
Frame rate : 23.976 fps
Color space : YUV
Chroma subsampling : 4:2:0
Bit depth : 8 bits
Scan type : Progressive
Bits/(Pixel*Frame) : 0.245
Stream size : 1.91 GiB (69%)
Writing library : x264 core 116 r2074 2641b9e
Encoding settings : cabac=1 / ref=9 / deblock=1:-3:-3 / analyse=0x3:0x113 / me=umh / subme=10 / psy=1 / psy_rd=0.75:0.05 / mixed_ref=1 / me_range=32 / chroma_me=1 / trellis=2 / 8x8dct=1 / cqm=0 / deadzone=21,11 / fast_pskip=0 / chroma_qp_offset=-3 / threads=3 / sliced_threads=0 / nr=0 / decimate=1 / interlaced=0 / bluray_compat=0 / constrained_intra=0 / bframes=12 / b_pyramid=2 / b_adapt=2 / b_bias=0 / direct=3 / weightb=1 / open_gop=0 / weightp=2 / keyint=250 / keyint_min=23 / scenecut=40 / intra_refresh=0 / rc_lookahead=60 / rc=2pass / mbtree=0 / bitrate=2257 / ratetol=1.0 / qcomp=0.65 / qpmin=0 / qpmax=69 / qpstep=4 / cplxblur=20.0 / qblur=0.5 / vbv_maxrate=50000 / vbv_bufsize=62500 / nal_hrd=none / ip_ratio=1.40 / pb_ratio=1.30 / aq=2:1.00
Language : English
Audio #1
ID : 2
Format : AC-3
Format/Info : Audio Coding 3
Mode extension : CM (complete main)
Codec ID : A_AC3
Duration : 2h 5mn
Bit rate mode : Constant
Bit rate : 448 Kbps
Channel(s) : 6 channels
Channel positions : Front: L C R, Side: L R, LFE
Sampling rate : 48.0 KHz
Bit depth : 16 bits
Compression mode : Lossy
Stream size : 403 MiB (14%)
Title : Dub
Language : Russian
Audio #2
ID : 3
Format : AC-3
Format/Info : Audio Coding 3
Mode extension : CM (complete main)
Codec ID : A_AC3
Duration : 2h 5mn
Bit rate mode : Constant
Bit rate : 448 Kbps
Channel(s) : 6 channels
Channel positions : Front: L C R, Side: L R, LFE
Sampling rate : 48.0 KHz
Bit depth : 16 bits
Compression mode : Lossy
Stream size : 403 MiB (14%)
Language : English
Text #1
ID : 4
Format : UTF-8
Codec ID : S_TEXT/UTF8
Codec ID/Info : UTF-8 Plain Text
Title : Positiv
Language : Russian
Text #2
ID : 5
Format : UTF-8
Codec ID : S_TEXT/UTF8
Codec ID/Info : UTF-8 Plain Text
Language : Russian
Text #3
ID : 6
Format : UTF-8
Codec ID : S_TEXT/UTF8
Codec ID/Info : UTF-8 Plain Text
Language : English
Menu
00:00:00.000 : en:Chapter 1
00:04:09.749 : en:Chapter 2
00:08:55.826 : en:Chapter 3
00:12:58.652 : en:Chapter 4
00:17:39.016 : en:Chapter 5
00:22:15.584 : en:Chapter 6
00:27:02.871 : en:Chapter 7
00:31:53.870 : en:Chapter 8
00:35:04.227 : en:Chapter 9
00:39:49.595 : en:Chapter 10
00:44:05.142 : en:Chapter 11
00:48:10.971 : en:Chapter 12
00:51:58.240 : en:Chapter 13
00:56:58.540 : en:Chapter 14
01:01:53.876 : en:Chapter 15
01:06:32.488 : en:Chapter 16
01:10:17.463 : en:Chapter 17
01:12:09.033 : en:Chapter 18
01:17:07.289 : en:Chapter 19
01:21:58.705 : en:Chapter 20
01:26:52.707 : en:Chapter 21
01:31:41.412 : en:Chapter 22
01:36:40.544 : en:Chapter 23
01:41:40.052 : en:Chapter 24
01:46:31.218 : en:Chapter 25
01:50:53.146 : en:Chapter 26
01:54:34.409 : en:Chapter 27
01:57:56.569 : en:Chapter 28

_________________
[Торрент-статистика]
[Профиль]  [ЛС] 
Показать сообщения:    
Ответить на тему

Текущее время: Сегодня 08:47

Часовой пояс: GMT + 4



Вы не можете начинать темы
Вы не можете отвечать на сообщения
Вы не можете редактировать свои сообщения
Вы не можете удалять свои сообщения
Вы не можете голосовать в опросах
Вы не можете прикреплять файлы к сообщениям
Вы не можете скачивать файлы