Плетеный человек / The Wicker Man (Нил ЛаБут / Neil LaBute) [2006 г., Мистика, ужасы, триллер, детектив, HDRip]

Ответить на тему
 
Автор
Сообщение

awk05 ®

Пол:

Стаж: 5 лет 8 месяцев

Сообщений: 1352

Репутация: 275 [+] [-]

Откуда: Западная Украина Ривне

Пост 07-Фев-2014 05:19

[Цитировать] 

--Плетеный человек / The Wicker Man-- Год выпуска: 2006
Страна: США
Жанр: Мистика, ужасы, триллер, детектив
Продолжительность: 01:41:42
Перевод: Профессиональный (полное дублирование)
Субтитры: Отсутствуют--
Режиссер: Нил ЛаБут / Neil LaBute--
В ролях: Николас Кейдж (Edward Malus), Эллен Бёрстин (Sister Summerslsle), Кейт Бихан (Sister Willow Woodward), Фрэнсис Конрой (Dr. T.H. Moss), Молли Паркер (Sister Rose / Sister Thorn), Лили Собески (Лили Собески), Дайан Делано ( Sister Beech), Майкл Уайзмен (Officer Pete), Эрика-Шэй Гэйр (Rowan Woodward), Криста Кэмпбелл (Криста Кэмпбелл), Эмили Холмс (Station Wagon Mom)--
Описание: Офицер полиции Эдвард Мейлус получает письмо от своей бывшей невесты Уиллоу, где она просит помочь в поисках их пропавшей дочери Роан. Он приезжает на остров Саммерсайл, где встречает странных жителей. Вскоре Мейлус понимает, что на острове живут члены религиозной секты, которыми правит пожилая женщина сестра Саммерсайл. Он узнаёт, что его дочь собираются принести в жертву для получения хорошего урожая во время праздника. Пробравшись к месту проведения праздника, он спасает дочь и скрывается в лесу. Неожиданно Роан бежит в сторону сестры Саммерсайл. Эдвард, угрожая пистолетом, требует вернуть дочь. Его окружают жители. Уиллоу шокирует его своим признанием, что она является дочерью Саммерсайл, и что его специально заманили на остров. Уиллоу также предварительно разрядила его пистолет.--
Качество: HDRip
Формат: AVI
Видео кодек: XviD
Аудио кодек: AC3
Видео: 720x304 (2.35:1), 23,976 кадра/сек, 1654 Кбит/сек, 0.315 Бит/(Пиксели*Кадры)
Аудио: 6 каналов Front: L C R, Side: L R, LFE, 48,0 КГц, 384 Кбит/сек, 16 бит [RUS]--
--

Знаете ли Вы, что...

* Тайное общество в фильме было спародировано в мультсериале «Южный парк», во второй серии двенадцатого сезона «Новая внешность Бритни»
* Николас Кейдж в фильме был вынужден ради большей реалистичности бить женщин по-настоящему.
* Почти после каждой галлюцинации Эдвард Мейлус принимает таблетки, из-за чего появилась шутка, что персонаж Николаса Кейджа наркоман

MediaInfo

Общее
Полное имя : G:\Films\Николас Кейдж\Pleteniy.chelovek.2006.RUS.BDRip.XviD.AC3.by.dark.avi
Формат : AVI
Формат/Информация : Audio Video Interleave
Размер файла : 1,45 Гбайт
Продолжительность : 1 ч. 41 м.
Общий поток : 2047 Кбит/сек
Программа кодирования : VirtualDubMod 1.5.10.2 (build 2540/release)
Библиотека кодирования : VirtualDubMod build 2540/release
Видео
Идентификатор : 0
Формат : MPEG-4 Visual
Профиль формата : Advanced Simple@L5
Параметр BVOP формата : 1
Параметр QPel формата : Нет
Параметр GMC формата : Без точки перехода
Параметр матрицы формата : Default (MPEG)
Идентификатор кодека : XVID
Идентификатор кодека/Подсказка : XviD
Продолжительность : 1 ч. 41 м.
Битрейт : 1654 Кбит/сек
Ширина : 720 пикселей
Высота : 304 пикселя
Соотношение сторон : 2,35:1
Частота кадров : 23,976 кадра/сек
Цветовое пространство : YUV
Субдискретизация насыщенности : 4:2:0
Битовая глубина : 8 бит
Тип развёртки : Прогрессивная
Метод сжатия : С потерями
Бит/(Пиксели*Кадры) : 0.315
Размер потока : 1,18 Гбайт (81%)
Библиотека кодирования : XviD 1.2.1 (UTC 2008-12-04)
Аудио
Идентификатор : 1
Формат : AC-3
Формат/Информация : Audio Coding 3
Расширение режима : CM (complete main)
Параметр Endianness формата : Big
Идентификатор кодека : 2000
Продолжительность : 1 ч. 41 м.
Вид битрейта : Постоянный
Битрейт : 384 Кбит/сек
Каналы : 6 каналов
Расположение каналов : Front: L C R, Side: L R, LFE
Частота : 48,0 КГц
Битовая глубина : 16 бит
Метод сжатия : С потерями
Размер потока : 279 Мбайт (19%)
Выравнивание : Разделение по промежуткам
Продолжительность промежутка : 42 мс. (1,00 видеокадр)
Время предзагрузки промежутка : 500 мс.

Скриншоты


_________________
[Торрент-статистика]
[Профиль]  [ЛС] 
Показать сообщения:    
Ответить на тему

Текущее время: Сегодня 21:39

Часовой пояс: GMT + 4



Вы не можете начинать темы
Вы не можете отвечать на сообщения
Вы не можете редактировать свои сообщения
Вы не можете удалять свои сообщения
Вы не можете голосовать в опросах
Вы не можете прикреплять файлы к сообщениям
Вы не можете скачивать файлы