В стране женщин / In the Land of Women (Джонатан Кэсдан /Jon Kasdan) [2007 г., Комедия, Драма, Любовный роман, ВDRip]

Ответить на тему
 
Автор
Сообщение

awk05 ®

Пол:

Стаж: 6 лет 1 месяц

Сообщений: 1351

Репутация: 275 [+] [-]

Откуда: Западная Украина Ривне

Пост 30-Янв-2014 06:46

[Цитировать] 

--В стране женщин / In the Land of Women-- Год выпуска: 2007
Страна: США
Жанр: Комедия, Драма, Любовный роман
Продолжительность: 01:38:04
Перевод: Профессиональный (полное дублирование)
Русские субтитры: нет--
Режиссер: Джонатан Кэсдан /Jon Kasdan/--
В ролях: Адам Броди (Carter Webb), Кристен Стюарт ( Lucy Hardwicke), Мег Райан (Sarah Hardwicke),Макензи Вега (Paige Hardwicke), Олимпия Дукакис (Phyllis), ДжоБет Уильямс (Agnes Webb), Елена Анайя (Sofia), Кларк Грегг (Nelson Hardwicke), Джиннифер Гудвин (Janey), Джина Мантенья (Teenage Girl)--
Описание: Молодой телесценарист после разрыва с известной актрисой уезжает в пригород Детройта к любимой бабушке, чтобы вернуть душевное равновесие. Но просто отдохнуть ему не дают женщины, живущие по соседству. Он знакомится с семьей Хардвиков - мамой и двумя ее очаровательными дочерьми. Вскоре Картер понимает: то, что казалось финалом, на самом деле только начало чего-то нового…--
Качество: ВDRip
Формат: AVI
Видео кодек: XviD
Аудио кодек: AC3
Видео: 720x304 (2.35:1), 23,976 кадра/сек, 1663 Кбит/сек, 0.317 Бит/(Пиксели*Кадры)
Аудио 1: 6 каналов Front: L C R, Side: L R, LFE, 48,0 КГц, 448 Кбит/сек , 16 бит [RUS]-- --

MediaInfo

Общее
Полное имя : D:\раздачи\V.Strane.Zhenschin.2007.RUS.BDRip.XviD.AC3.-HQ-ViDEO.avi
Формат : AVI
Формат/Информация : Audio Video Interleave
Размер файла : 1,45 Гбайт
Продолжительность : 1 ч. 38 м.
Общий поток : 2120 Кбит/сек
Название фильма : В стране женщин / In the Land of Women (2007)
Режиссёр : SENATOR (BDRip 720)
Программа кодирования : VirtualDubMod 1.5.4.1 (build 2178/release)
Правообладатель : HQ-ViDEO (www.hq-video.ru)
Примечание : 11.03.2008
Видео
Идентификатор : 0
Формат : MPEG-4 Visual
Профиль формата : Advanced Simple@L5
Параметр BVOP формата : 2
Параметр QPel формата : Да
Параметр GMC формата : Без точки перехода
Параметр матрицы формата : Default (MPEG)
Режим смешивания : Сжатый битовый поток
Идентификатор кодека : XVID
Идентификатор кодека/Подсказка : XviD
Продолжительность : 1 ч. 38 м.
Битрейт : 1663 Кбит/сек
Ширина : 720 пикселей
Высота : 304 пикселя
Соотношение сторон : 2,35:1
Частота кадров : 23,976 кадра/сек
Цветовое пространство : YUV
Субдискретизация насыщенности : 4:2:0
Битовая глубина : 8 бит
Тип развёртки : Прогрессивная
Метод сжатия : С потерями
Бит/(Пиксели*Кадры) : 0.317
Размер потока : 1,14 Гбайт (78%)
Библиотека кодирования : XviD 1.2.0.dev47 (UTC 2006-11-01)
Аудио
Идентификатор : 1
Формат : AC-3
Формат/Информация : Audio Coding 3
Расширение режима : CM (complete main)
Параметр Endianness формата : Big
Идентификатор кодека : 2000
Продолжительность : 1 ч. 38 м.
Вид битрейта : Постоянный
Битрейт : 448 Кбит/сек
Каналы : 6 каналов
Расположение каналов : Front: L C R, Side: L R, LFE
Частота : 48,0 КГц
Битовая глубина : 16 бит
Метод сжатия : С потерями
Размер потока : 314 Мбайт (21%)
Выравнивание : Разделение по промежуткам
Продолжительность промежутка : 42 мс. (1,00 видеокадр)
Время предзагрузки промежутка : 500 мс.

_________________
[Торрент-статистика]
[Профиль]  [ЛС] 
Показать сообщения:    
Ответить на тему

Текущее время: Сегодня 15:21

Часовой пояс: GMT + 4



Вы не можете начинать темы
Вы не можете отвечать на сообщения
Вы не можете редактировать свои сообщения
Вы не можете удалять свои сообщения
Вы не можете голосовать в опросах
Вы не можете прикреплять файлы к сообщениям
Вы не можете скачивать файлы