Суррогаты / Surrogates (Джонатан Мостоу / Jonathan Mostow) [2009, США, фантастика, боевик, триллер, BDRip] Dub

Ответить на тему
 
Автор
Сообщение

awk05 ®

Пол:

Стаж: 6 лет 1 месяц

Сообщений: 1351

Репутация: 275 [+] [-]

Откуда: Западная Украина Ривне

Пост 25-Янв-2014 02:11

[Цитировать] 

--Суррогаты / Surrogates-- Страна: США
Жанр: фантастика, боевик, триллер
Год выпуска: 2009
Продолжительность: 01:28:36
Перевод: Профессиональный (дублированный)
Cубтитры: нет--
Режиссер: Джонатан Мостоу / Jonathan Mostow--
В ролях: Брюс Уиллис (Greer), Рада Митчелл (Peters), Розамунд Пайк (Maggie), Борис Коджо (Stone), Джеймс Джинти (Canter), Джеймс Кромуэлл (Older Canter), Винг Реймз (The Prophet), Джек Ноузуорти ( Strickland), Девин Рэтрей (Bobby), Майкл Кудлиц (Colonel Brendon)--
Описание: Действие разворачивается в будущем, в 2057 году, — когда люди практически перестанут общаться между собой и полностью возложат эту функцию на плечи роботов-заменителей. Они сильнее, моложе, привлекательнее своих обладателей и даже могут быть другого пола. Но находится террорист, начинающий уничтожать идеальных андроидов. Полицейскому Тому Гриру предстоит узнать, какие причины движут злоумышленником, лишающим жизни людей и их марионеток, технически и физически совершенных.--
Качество видео: BDRip
Формат видео: AVI
Видео кодек: XviD
Аудио кодек: AC3
Видео: 720x304 (2.37:1), 23.976 fps, XviD build 64 ~1950 kbps avg, 0.372 bit/pixel
Аудио: 48 kHz, AC3 Dolby Digital, 3/2 (L,C,R,l,r) + LFE ch, ~384.00 kbps avg--

Скриншоты

MediaInfo

Format : AVI
Format/Info : Audio Video Interleave
File size : 1.45 GiB
Duration : 1h 28mn
Overall bit rate : 2 344 Kbps
Movie name : Surrogaty.2009..BDRip
Director : Gummy
Writing application : VirtualDubMod 1.5.10.2 (build 2542/release)
Video
ID : 0
Format : MPEG-4 Visual
Format profile : Advanced Simple@L5
Format settings, BVOP : 1
Format settings, QPel : No
Format settings, GMC : No warppoints
Format settings, Matrix : Custom
Codec ID : XVID
Codec ID/Hint : XviD
Duration : 1h 28mn
Bit rate : 1 951 Kbps
Width : 720 pixels
Height : 304 pixels
Display aspect ratio : 2.35:1
Frame rate : 23.976 fps
Color space : YUV
Chroma subsampling : 4:2:0
Bit depth : 8 bits
Scan type : Progressive
Compression mode : Lossy
Bits/(Pixel*Frame) : 0.372
Stream size : 1.21 GiB (83%)
Writing library : XviD 64
Audio
ID : 1
Format : AC-3
Format/Info : Audio Coding 3
Mode extension : CM (complete main)
Format settings, Endianness : Big
Codec ID : 2000
Duration : 1h 28mn
Bit rate mode : Constant
Bit rate : 384 Kbps
Channel(s) : 6 channels
Channel positions : Front: L C R, Side: L R, LFE
Sampling rate : 48.0 KHz
Bit depth : 16 bits
Compression mode : Lossy
Stream size : 243 MiB (16%)
Alignment : Split accross interleaves
Interleave, duration : 42 ms (1.00 video frame)
Interleave, preload duration : 500 ms

_________________


Последний раз редактировалось: awk05 (2014-01-25 22:31), всего редактировалось 1 раз
[Торрент-статистика]
[Профиль]  [ЛС] 

Alexvir

Стаж: 5 лет 3 месяца

Сообщений: 1

Репутация: 2 [+] [-]

Пост 25-Янв-2014 11:03 (спустя 8 часов)

[Цитировать] 

выкладываете хорошие старые фильмы
нонафига в таком качестве ??
есть же 720 почти на все
приходится топать на другие трекеры дабы качнуть в качестве
Подборка хорошая, спасибо
[Торрент-статистика]
[Профиль]  [ЛС] 

3232fox

Пол:

Стаж: 5 лет 4 месяца

Сообщений: 613

Репутация: 423 [+] [-]

Откуда: Крым,Россия

Пост 25-Янв-2014 13:36 (спустя 2 часа 33 минуты)

[Цитировать] 

42376выкладываете хорошие старые фильмы
нонафига в таком качестве ??
есть же 720 почти на все
приходится топать на другие трекеры дабы качнуть в качестве
Подборка хорошая, спасибо
Прекрасное качество в чём проблемма
[Торрент-статистика]
[Профиль]  [ЛС] 

sergei78

Пол:

Стаж: 4 года 9 месяцев

Сообщений: 91

Репутация: 120 [+] [-]

Откуда: Бывший СССР: "Связист Кстово 100/40"

Пост 25-Янв-2014 14:41 (спустя 1 час 4 минуты)

[Цитировать] 

42376выкладываете хорошие старые фильмы
нонафига в таком качестве ??
есть же 720 почти на все
приходится топать на другие трекеры дабы качнуть в качестве
Подборка хорошая, спасибо
Поддерживаю.
Приходится качать с другого места в высоком качестве.
Я avi не уважаю, я качаю фильм в avi если в высоком качестве нету в природе.
[Торрент-статистика]
[Профиль]  [ЛС] 

awk05 ®

Пол:

Стаж: 6 лет 1 месяц

Сообщений: 1351

Репутация: 275 [+] [-]

Откуда: Западная Украина Ривне

Пост 25-Янв-2014 16:02 (спустя 1 час 20 минут)

[Цитировать] 

на вкус и цвет все фломастеры разные

_________________
[Торрент-статистика]
[Профиль]  [ЛС] 

alien.09

Пол:

Стаж: 5 лет 3 месяца

Сообщений: 761

Репутация: 569 [+] [-]

Пост 25-Янв-2014 16:04 (спустя 2 минуты)

[Цитировать] 

Alexvir, sergei78,
что или кто мешает разместить названия и тех. данные нужных фильмов
здесь ?
убеждён, что существующий в природе фильм будет выложен... ab-
42381Приходится качать с другого места в высоком качестве.
или это был тонкий намёк на толстые щёки?

_________________
Правообладатели, убейтесь об эту надпись.


Последний раз редактировалось: alien.09 (2014-01-25 16:31), всего редактировалось 1 раз
[Торрент-статистика]
[Профиль]  [ЛС] 

awk05 ®

Пол:

Стаж: 6 лет 1 месяц

Сообщений: 1351

Репутация: 275 [+] [-]

Откуда: Западная Украина Ривне

Пост 25-Янв-2014 16:06 (спустя 1 минута)

[Цитировать] 

42381
42376выкладываете хорошие старые фильмы
нонафига в таком качестве ??
есть же 720 почти на все
приходится топать на другие трекеры дабы качнуть в качестве
Подборка хорошая, спасибо
Поддерживаю.
Приходится качать с другого места в высоком качестве.
Я avi не уважаю, я качаю фильм в avi если в высоком качестве нету в природе.
сделай сам 720 и 1080

_________________
[Торрент-статистика]
[Профиль]  [ЛС] 
Показать сообщения:    
Ответить на тему

Текущее время: Сегодня 23:08

Часовой пояс: GMT + 4



Вы не можете начинать темы
Вы не можете отвечать на сообщения
Вы не можете редактировать свои сообщения
Вы не можете удалять свои сообщения
Вы не можете голосовать в опросах
Вы не можете прикреплять файлы к сообщениям
Вы не можете скачивать файлы