Нянька по вызову / The Rebound (Барт Фрейндлих / Bart Freundlich) [2009 г., Комедия, мелодрама, BDRip] Dub

Ответить на тему
 
Автор
Сообщение

awk05 ®

Пол:

Стаж: 6 лет 1 месяц

Сообщений: 1351

Репутация: 275 [+] [-]

Откуда: Западная Украина Ривне

Пост 22-Янв-2014 04:20

[Цитировать] 

Нянька по вызову / The Rebound-«She's still got it. He's just getting it.»--
Год выпуска: 2009
Страна: США
Жанр: Комедия, мелодрама
Продолжительность: 01:34:44
Перевод: Профессиональный (полное дублирование)
Субтитры: Нет--
Режиссер: Барт Фрейндлих / Bart Freundlich--
В ролях: Кэтрин Зета-Джонс (Sandy), Джастин Барта (Aram Finklestein), Саадет Аксой (Girl in Ortakoy-Istanbul), Стив Антонуччи (Waiter), Марк Алан Остин (Rabbi's cousin), Пол Басиле (Goth Hipster), Роберт Бизик (TV Sports Announcer), Эндрю Брэдли (Coffee Shop Patron), Дэниэл Барресс (Coffee Shop Hipster), Меган Бирн (Molly Foster), Элана Кадиз (Girl in Pop Burger), Элиза Каллахан (Sadie)--
Описание: У 25-летнего юноши начинается роман с матерью-одиночкой, живущей по соседству. Основной преградой в их отношениях становится то, что главная героиня существенно старше своего избранника.--
Качество: BDRip
Формат: AVI
Видео-кодек: XviD
Аудио-кодек: AC3
Видео: 720x304 (2.35:1), 23.976 fps, XviD build 50 ~1809 kbps avg, 0.345 bit/pixel
Аудио: 48 kHz, AC3 Dolby Digital, 3/2 (L,C,R,l,r) + LFE ch, ~384.00 kbps avg / Dub (R5)--
--

MediaInfo

Общее
Полное имя : D:\раздачи\Nyan'ka.po.vyzovu.2009.RUS.BDRip.XviD.AC3.-HQCLUB\Nyan'ka.po.vyzovu.2009.RUS.BDRip.XviD.AC3.-HQCLUB.avi
Формат : AVI
Формат/Информация : Audio Video Interleave
Размер файла : 1,46 Гбайт
Продолжительность : 1 ч. 34 м.
Общий поток : 2202 Кбит/сек
Название фильма : Нянька по вызову / The Rebound (2009) BDRip
Режиссёр : xxL
Программа кодирования : VirtualDubMod 1.5.10.2 (build 2542/release)
Примечание : 15.08.2010
Видео
Идентификатор : 0
Формат : MPEG-4 Visual
Профиль формата : Advanced Simple@L5
Параметр BVOP формата : 1
Параметр QPel формата : Нет
Параметр GMC формата : Без точки перехода
Параметр матрицы формата : Выборочная
Идентификатор кодека : XVID
Идентификатор кодека/Подсказка : XviD
Продолжительность : 1 ч. 34 м.
Битрейт : 1809 Кбит/сек
Ширина : 720 пикселей
Высота : 304 пикселя
Соотношение сторон : 2,35:1
Частота кадров : 23,976 кадра/сек
Цветовое пространство : YUV
Субдискретизация насыщенности : 4:2:0
Битовая глубина : 8 бит
Тип развёртки : Прогрессивная
Метод сжатия : С потерями
Бит/(Пиксели*Кадры) : 0.345
Размер потока : 1,20 Гбайт (82%)
Библиотека кодирования : XviD 1.2.1 (UTC 2008-12-04)
Аудио
Идентификатор : 1
Формат : AC-3
Формат/Информация : Audio Coding 3
Расширение режима : CM (complete main)
Параметр Endianness формата : Big
Идентификатор кодека : 2000
Продолжительность : 1 ч. 34 м.
Вид битрейта : Постоянный
Битрейт : 384 Кбит/сек
Каналы : 6 каналов
Расположение каналов : Front: L C R, Side: L R, LFE
Частота : 48,0 КГц
Битовая глубина : 16 бит
Метод сжатия : С потерями
Размер потока : 260 Мбайт (17%)
Выравнивание : Разделение по промежуткам
Продолжительность промежутка : 42 мс. (1,00 видеокадр)
Время предзагрузки промежутка : 500 мс.

_________________
[Торрент-статистика]
[Профиль]  [ЛС] 
Показать сообщения:    
Ответить на тему

Текущее время: Сегодня 05:16

Часовой пояс: GMT + 4



Вы не можете начинать темы
Вы не можете отвечать на сообщения
Вы не можете редактировать свои сообщения
Вы не можете удалять свои сообщения
Вы не можете голосовать в опросах
Вы не можете прикреплять файлы к сообщениям
Вы не можете скачивать файлы