Не шутите с Зоханом / You Don't Mess with the Zohan (Дэннис Дуган / Dennis Dugan) [2008 г., комедия, HDRip] Dub

Ответить на тему
 
Автор
Сообщение

awk05 ®

Пол:

Стаж: 5 лет 11 месяцев

Сообщений: 1352

Репутация: 275 [+] [-]

Откуда: Западная Украина Ривне

Пост 22-Янв-2014 04:06

[Цитировать] 

-- Не шутите с Zоханом! / You Don't Mess with the Zohan-- Год выпуска: 2008
Страна: США
Жанр: комедия
Продолжительность: 01:48:00 мин
Перевод: Профессиональный (полное дублирование)
Субтитры: нет
Режиссер: Дэннис Дуган /Dennis Dugan--
В ролях: Адам Сэндлер (Zohan), Джон Туртурро (Phantom), Эммануэль Шрики (Dalia), Ник Свардсон (Michael), Лэйни Казан (Gail), Идо Моссери (Oori), Роб Шнайдер (Salim), Дэйв Мэтьюз (James), Майкл Баффер (Walbridge), Мэрайя Кэри (Мэрайя Кэри)--Описание: Израильский боец Зохан Двир – известнейший в своей стране борец с терроризмом. С одинаковой легкостью он поражает сердца женщин и уничтожает врагов. Однако у Зохана есть один секрет… он очень устал от бесконечной войны и мечтает о передышке, возможности проявить свои творческие способности, став парикмахером. Но пока Зохан борется с терроризмом, его мечте сбыться не суждено. Засыпая, он горько плачет над каталогом Поля Митчелла 1987 года, спрятанным в его спальне. Свой шанс осуществить мечту Зохан получает, когда на горизонте в очередной раз появляется суперзлодей Фантом. Вместо того, чтобы уничтожить террориста, Зохан инсценируют собственную смерть и сбегает со службы. Зайцем пробравшись на борт самолета до Нью-Йорка, Зохан, у которого нет ничего, кроме рюкзака с одеждой и безумной мечты, оказывается в грузовом отсеке вместе с двумя собаками – Скрэппи и Коко. По прибытии в Нью-Йорк Зохан первым делом отправляется в салон Поля Митчелла, скрываясь под новым именем Скрэппи Коко. Скрэппи надеется, что его тут же возьмут на работу, но встречает лишь насмешки над своей старомодностью. Несмотря ни на что, Зохан не оставляет попытки сделать мир шелковистым и блестящим.--
Качество: HDRip
Формат: AVI
Видео кодек: XviD
Аудио кодек: АС3
Видео: 720x384 (1.875), 23,976 fps, ~1325 kbps avg, 0.200 bit/pixel
Аудио: 48 kHz, AC3 Dolby Digital, 3/2 (L,C,R,l,r) + LFE ch, ~448.00 kbps avg-- --

MediaInfo

Общее
Полное имя : D:\раздачи\Ne.shutite.s.Zohanom.Unrated.2008.HDRip\Ne.shutite.s.Zohanom.Unrated.2008.HDRip.avi
Формат : AVI
Формат/Информация : Audio Video Interleave
Размер файла : 1,46 Гбайт
Продолжительность : 1 ч. 56 м.
Общий поток : 1783 Кбит/сек
Программа кодирования : VirtualDubMod 1.5.10.2 (build 2540/release)
Библиотека кодирования : VirtualDubMod build 2540/release
Видео
Идентификатор : 0
Формат : MPEG-4 Visual
Профиль формата : Advanced Simple@L5
Параметр BVOP формата : 2
Параметр QPel формата : Нет
Параметр GMC формата : Без точки перехода
Параметр матрицы формата : Default (MPEG)
Идентификатор кодека : XVID
Идентификатор кодека/Подсказка : XviD
Продолжительность : 1 ч. 56 м.
Битрейт : 1325 Кбит/сек
Ширина : 720 пикселей
Высота : 384 пикселя
Соотношение сторон : 1,85:1
Частота кадров : 23,976 кадра/сек
Цветовое пространство : YUV
Субдискретизация насыщенности : 4:2:0
Битовая глубина : 8 бит
Тип развёртки : Прогрессивная
Метод сжатия : С потерями
Бит/(Пиксели*Кадры) : 0.200
Размер потока : 1,08 Гбайт (74%)
Библиотека кодирования : XviD 1.2.1 (UTC 2008-12-04)
Аудио
Идентификатор : 1
Формат : AC-3
Формат/Информация : Audio Coding 3
Расширение режима : CM (complete main)
Параметр Endianness формата : Big
Идентификатор кодека : 2000
Продолжительность : 1 ч. 56 м.
Вид битрейта : Постоянный
Битрейт : 448 Кбит/сек
Каналы : 6 каналов
Расположение каналов : Front: L C R, Side: L R, LFE
Частота : 48,0 КГц
Битовая глубина : 16 бит
Метод сжатия : С потерями
Размер потока : 375 Мбайт (25%)
Выравнивание : Разделение по промежуткам
Продолжительность промежутка : 42 мс. (1,00 видеокадр)
Время предзагрузки промежутка : 500 мс.

_________________
[Торрент-статистика]
[Профиль]  [ЛС] 
Показать сообщения:    
Ответить на тему

Текущее время: Сегодня 01:11

Часовой пояс: GMT + 4



Вы не можете начинать темы
Вы не можете отвечать на сообщения
Вы не можете редактировать свои сообщения
Вы не можете удалять свои сообщения
Вы не можете голосовать в опросах
Вы не можете прикреплять файлы к сообщениям
Вы не можете скачивать файлы