Не оставляющий следа / Untraceable (Грегори Хоблит) [2008 г., Триллер, криминал, DVDRip]

Ответить на тему
 
Автор
Сообщение

awk05 ®

Пол:

Стаж: 6 лет 1 месяц

Сообщений: 1351

Репутация: 275 [+] [-]

Откуда: Западная Украина Ривне

Пост 22-Янв-2014 01:20

[Цитировать] 

--Не оставляющий следа / Untraceable-- Год выпуска: 2008
Страна: США
Жанр: Триллер, криминал
Продолжительность: 01:37:00
Перевод: Профессиональный (полное дублирование)
Субтитры: отсутствуют--
Режиссер: Грегори Хоблит--
В ролях: Дайан Лэйн, Билли Бурк, Колин Хэнкс, Джозеф Кросс, Мэри Бет Херт, Питер Льюис, Тайрон Джордано, Перла Хэйни-Джардин, Тим Де Зарн, Крис Казинс--Описание: Агент ФБР Дженнифер Марш (Дайан Лейн)работает в особом подразделение по расследованию и пресечению Интернет-преступлений. Однажды она находит сайт, на котором убийца-маньяк размещает на своем сайте картины жестоких убийств — судьба каждой из жертв напрямую зависит от количества посетивших сайт: чем больше подобных «свидетелей», тем быстрее умирает жертва. Убийства транслируются On-line. Дженнифер вместе с коллегами пытается вычислить маньяка, остающегося вне досягаемости, и предотвратить страшные убийства, но тот — затевает собственную изощрённую игру.
Когда Дженнифер понимает, что маньяк имеет что-то личное и к ней и к ее близкому окружению, ей и ее команде приходится играть на опережение, чтобы предотвратить страшные убийства этого инквизитора, не оставляющего ни следов, ни улик.
--Качество: DVDRip
Формат: AVI
Видео кодек: XviD
Аудио кодек: AC3
Видео: 672x384 (16:9), 25,000 кадра/сек, 1564 Кбит/сек, 0.242 Бит/(Пиксели*Кадры)
Аудио: 6 каналов Front: L C R, Side: L R, LFE, 48,0 КГц, 448 Кбит/сек--
--

MediaInfo

Формат : MPEG-4 Visual
Профиль формата : Advanced Simple@L5
Параметр BVOP формата : 1
Параметр QPel формата : Нет
Параметр GMC формата : Без точки перехода
Параметр матрицы формата : Выборочная
Идентификатор кодека : XVID
Идентификатор кодека/Подсказка : XviD
Продолжительность : 1 ч. 37 м.
Битрейт : 1564 Кбит/сек
Ширина : 672 пикселя
Высота : 384 пикселя
Соотношение сторон : 16:9
Частота кадров : 25,000 кадров/сек
Цветовое пространство : YUV
Субдискретизация насыщенности : 4:2:0
Битовая глубина : 8 бит
Тип развёртки : Прогрессивная
Метод сжатия : С потерями
Бит/(Пиксели*Кадры) : 0.242
Размер потока : 1,06 Гбайт (77%)
Библиотека кодирования : XviD 1.2.0.dev47 (UTC 2006-11-01)
Аудио
Идентификатор : 1
Формат : AC-3
Формат/Информация : Audio Coding 3
Расширение режима : CM (complete main)
Параметр Endianness формата : Big
Идентификатор кодека : 2000
Продолжительность : 1 ч. 37 м.
Вид битрейта : Постоянный
Битрейт : 448 Кбит/сек
Каналы : 6 каналов
Расположение каналов : Front: L C R, Side: L R, LFE
Частота : 48,0 КГц
Битовая глубина : 16 бит
Метод сжатия : С потерями
Размер потока : 311 Мбайт (22%)
Выравнивание : Разделение по промежуткам
Продолжительность промежутка : 96 мс. (2,40 видеокадра)
Время предзагрузки промежутка : 96 мс.
Язык : Russian

_________________
[Торрент-статистика]
[Профиль]  [ЛС] 
Показать сообщения:    
Ответить на тему

Текущее время: Сегодня 05:08

Часовой пояс: GMT + 4



Вы не можете начинать темы
Вы не можете отвечать на сообщения
Вы не можете редактировать свои сообщения
Вы не можете удалять свои сообщения
Вы не можете голосовать в опросах
Вы не можете прикреплять файлы к сообщениям
Вы не можете скачивать файлы