Наркоз / Awake (Джоби Харольд / Joby Harold) [2007, США, Триллер, драма, BDRip] DUB + original eng + Sub

Ответить на тему
 
Автор
Сообщение

awk05 ®

Пол:

Стаж: 6 лет

Сообщений: 1352

Репутация: 275 [+] [-]

Откуда: Западная Украина Ривне

Пост 21-Янв-2014 21:14

[Цитировать] 

--Наркоз / Awake-- «Каждый год 21 миллион человек оперируются под наркозом. Один из 700 остаётся в сознании.»--
Страна: США
Жанр: Триллер, драма
Год выпуска: 2007
Продолжительность: 01:24:05
Перевод: Профессиональный (дублированный)
Cубтитры: Русские, английские
Оригинальная аудиодорожка: английский (отдельно)--
Режиссер: Джоби Харольд / Joby Harold--
В ролях: Хейден Кристенсен(Clay Beresford), Джессика Альба( Sam Lockwood), Терренс Ховард(Dr. Jack Harper), Лена Улин(Lilith Beresford), Кристофер МакДональд(Dr. Larry Lupin)Сэм Робардс(Clayton Beresford Sr.)Арлисс Ховард(Dr. Jonathan Neyer), Фишер Стивенс(Dr. Puttnam), Джорджина Чэпман(Penny Carver), Дэвид Харбор( Dracula)--
Описание: У молодого миллионера Клэйя Бересфорда есть красивая подруга и любящая мать, а в придачу… больное сердце, которое может остановиться в любую минуту. Клэй стоит в очереди на пересадку, но, если и найдется донорское сердце, - шансы выжить невелики. Близкий друг, хирург, убеждает его жениться как можно скорее, чтобы не упустить своего счастья, ведь жизнь становится такой непрочной. Удивительно, но сразу же после свадьбы Клэй получает срочный вызов из клиники – к трансплантации сердца нужно приступить немедленно. Операция начинается, но происходит невероятное - наркоз действует лишь частично, и сознание пациента не отключается. Клэй оказывается в кошмарном сне, он полностью обездвижен и не в силах произнести ни слова. Боль не оставляет его ни на минуту, сквозь нее он слышит все разговоры в операционной, и ему открывается страшная тайна о самых близких людях…--
Качество видео: BDRip
Формат видео: AVI
Видео кодек: XviD
Аудио кодек: AC3
Видео: 720x304 (2.35:1), 23.976 fps, XviD build 50 ~2015 kbps avg, 0.384 bit/pixel
Аудио 1: Rus; 48 kHz, AC3 Dolby Digital, 3/2 (L,C,R,l,r) + LFE ch, ~448 kbps
Аудио 2: Eng; 48 kHz, AC3 Dolby Digital, 3/2 (L,C,R,l,r) + LFE ch, ~448 kbps (отдельно)
Формат субтитров: softsub (SRT)--
--

MediaInfo

Общее
Полное имя : D:\раздачи\Narkoz.2007.RUS.BDRip.XviD.AC3.-HQCLUB\Narkoz.2007.RUS.BDRip.XviD.AC3.-HQCLUB.avi
Формат : AVI
Формат/Информация : Audio Video Interleave
Размер файла : 1,45 Гбайт
Продолжительность : 1 ч. 24 м.
Общий поток : 2472 Кбит/сек
Название фильма : Awake (2007) BDRip
Режиссёр : Vиkt0R
Жанр : Crime/Thriller
Программа кодирования : VirtualDubModRus 1.5.10.2 (build 2542/release)
Правообладатель : hqclub.net
Примечание : R.G. HQCLUB
Видео
Идентификатор : 0
Формат : MPEG-4 Visual
Профиль формата : Advanced Simple@L5
Параметр BVOP формата : 1
Параметр QPel формата : Нет
Параметр GMC формата : Без точки перехода
Параметр матрицы формата : Выборочная
Идентификатор кодека : XVID
Идентификатор кодека/Подсказка : XviD
Продолжительность : 1 ч. 24 м.
Битрейт : 2015 Кбит/сек
Ширина : 720 пикселей
Высота : 304 пикселя
Соотношение сторон : 2,35:1
Частота кадров : 23,976 кадра/сек
Цветовое пространство : YUV
Субдискретизация насыщенности : 4:2:0
Битовая глубина : 8 бит
Тип развёртки : Прогрессивная
Метод сжатия : С потерями
Бит/(Пиксели*Кадры) : 0.384
Размер потока : 1,18 Гбайт (82%)
Библиотека кодирования : XviD 1.2.1 (UTC 2008-12-04)
Аудио
Идентификатор : 1
Формат : AC-3
Формат/Информация : Audio Coding 3
Расширение режима : CM (complete main)
Параметр Endianness формата : Big
Идентификатор кодека : 2000
Продолжительность : 1 ч. 24 м.
Вид битрейта : Постоянный
Битрейт : 448 Кбит/сек
Каналы : 6 каналов
Расположение каналов : Front: L C R, Side: L R, LFE
Частота : 48,0 КГц
Битовая глубина : 16 бит
Метод сжатия : С потерями
Размер потока : 269 Мбайт (18%)
Выравнивание : Разделение по промежуткам
Продолжительность промежутка : 42 мс. (1,00 видеокадр)

_________________
[Торрент-статистика]
[Профиль]  [ЛС] 

ArtZak

Пол:

Стаж: 6 лет 7 месяцев

Сообщений: 2994

Репутация: 1363 [+] [-]

Откуда: Россия

Пост 21-Янв-2014 21:27 (спустя 13 минут)

[Цитировать] 

42074«Каждый год 21 миллион человек оперируются под наркозом. Один из 700 остаётся в сознании.»
о_О! Этот фильм мне рекомендовали посмотреть!
[Торрент-статистика]
[Профиль]  [ЛС] 

nova1980

Пол:

Стаж: 6 лет 7 месяцев

Сообщений: 817

Репутация: 526 [+] [-]

Откуда: Одесса Мама

Пост 22-Янв-2014 00:14 (спустя 2 часа 47 минут)

[Цитировать] 

Альба красотка еще та!

_________________
Мои Раздачи
[Торрент-статистика]
[Профиль]  [ЛС] 

ArtZak

Пол:

Стаж: 6 лет 7 месяцев

Сообщений: 2994

Репутация: 1363 [+] [-]

Откуда: Россия

Пост 22-Янв-2014 01:48 (спустя 1 час 33 минуты)

[Цитировать] 

awk05, спасибо! Скачаю, будет время ab
42126Альба красотка еще та!
Согласен ab Вот бы...
[Торрент-статистика]
[Профиль]  [ЛС] 
Показать сообщения:    
Ответить на тему

Текущее время: Сегодня 07:42

Часовой пояс: GMT + 4



Вы не можете начинать темы
Вы не можете отвечать на сообщения
Вы не можете редактировать свои сообщения
Вы не можете удалять свои сообщения
Вы не можете голосовать в опросах
Вы не можете прикреплять файлы к сообщениям
Вы не можете скачивать файлы