На крючке / Eagle Eye (Ди Джей Карузо / D.J. Caruso) [2008, Фантастика, боевик, триллер, детектив, BDRip] Dub

Ответить на тему
 
Автор
Сообщение

awk05 ®

Пол:

Стаж: 5 лет 8 месяцев

Сообщений: 1352

Репутация: 275 [+] [-]

Откуда: Западная Украина Ривне

Пост 21-Янв-2014 19:26

[Цитировать] 

--На крючке / Eagle Eye--«Хочешь жить - делай что говорят»-- Год выпуска: 2008
Выпущено: США, Германия / DreamWorks SKG
Жанр: фантастика, боевик, триллер, детектив
Продолжительность: 01:57:35
Перевод: Профессиональный (полное дублирование) R5
Субтитры: нет--
Режиссер: Ди Джей Карузо / D.J. Caruso--
В ролях: Шайа ЛаБаф (Shia LaBeouf), Мишель Монахэн (Michelle Monaghan), Розарио Доусон (Rosario Dawson), Майкл Чиклис (Michael Chiklis), Энтони Маки (Anthony Mackie), Итэн Эмбри (Ethan Embry), Билли Боб Торнтон (Billy Bob Thornton), Энтони Азизи (Anthony Azizi), Камерон Бойс (Cameron Boyce), Линн Коэн (Lynn Cohen)--
Описание: Молодой бездельник Джерри живет беззаботной жизнью, в отличие от своего брата-близнеца, стремящегося добиться успеха во всех сферах жизни, пока тот не погибает при загадочных обстоятельствах. После похорон Джерри находит в своем доме коробки с взрывчаткой, а женский голос по телефону требует выполнять все ее приказы, если он хочет остаться в живых...
В то же время мать-одиночка Рэйчел отправила своего сына поездом в Вашингтон. И тот же женский голос звонит Рэйчел, угрожая убить ее сына, требует от матери беспрекословного подчинения...
Вскоре становится понятно, что эта неизвестная женщина готовит крупный теракт. Молодые люди вынуждены вместе искать пути к спасению своей жизни…--

Качество: BDRip
Формат: AVI
Видео кодек: XviD
Аудио кодек: AC3
Видео: 720x304 (2.35:1), 23,976 кадра/сек, 1383 Кбит/сек, 0.264 Бит/(Пиксели*Кадры)
Аудио: 6 каналов Front: L C R, Side: L R, LFE, 48,0 КГц, 384 Кбит/сек-- --

MediaInfo

Общее
Полное имя : D:\раздачи\Na_kruchke_2008_BDRip_by_Dalemake.avi
Формат : AVI
Формат/Информация : Audio Video Interleave
Размер файла : 1,46 Гбайт
Продолжительность : 1 ч. 57 м.
Общий поток : 1777 Кбит/сек
Программа кодирования : VirtualDubMod 1.5.10.3 | www.virtualdub-fr.org || (build 2550/release)
Библиотека кодирования : VirtualDubMod build 2550/release
Видео
Идентификатор : 0
Формат : MPEG-4 Visual
Профиль формата : Advanced Simple@L5
Параметр BVOP формата : 1
Параметр QPel формата : Нет
Параметр GMC формата : Без точки перехода
Параметр матрицы формата : Выборочная
Идентификатор кодека : XVID
Идентификатор кодека/Подсказка : XviD
Продолжительность : 1 ч. 57 м.
Битрейт : 1383 Кбит/сек
Ширина : 720 пикселей
Высота : 304 пикселя
Соотношение сторон : 2,35:1
Частота кадров : 23,976 кадра/сек
Цветовое пространство : YUV
Субдискретизация насыщенности : 4:2:0
Битовая глубина : 8 бит
Тип развёртки : Прогрессивная
Метод сжатия : С потерями
Бит/(Пиксели*Кадры) : 0.264
Размер потока : 1,14 Гбайт (78%)
Библиотека кодирования : XviD 73
Аудио
Идентификатор : 1
Формат : AC-3
Формат/Информация : Audio Coding 3
Расширение режима : CM (complete main)
Параметр Endianness формата : Big
Идентификатор кодека : 2000
Продолжительность : 1 ч. 57 м.
Вид битрейта : Постоянный
Битрейт : 384 Кбит/сек
Каналы : 6 каналов
Расположение каналов : Front: L C R, Side: L R, LFE
Частота : 48,0 КГц
Битовая глубина : 16 бит
Метод сжатия : С потерями
Размер потока : 323 Мбайт (22%)
Выравнивание : Разделение по промежуткам
Продолжительность промежутка : 42 мс. (1,00 видеокадр)
Время предзагрузки промежутка : 500 мс.

Скриншоты

-

_________________
[Торрент-статистика]
[Профиль]  [ЛС] 
Показать сообщения:    
Ответить на тему

Текущее время: Сегодня 21:31

Часовой пояс: GMT + 4



Вы не можете начинать темы
Вы не можете отвечать на сообщения
Вы не можете редактировать свои сообщения
Вы не можете удалять свои сообщения
Вы не можете голосовать в опросах
Вы не можете прикреплять файлы к сообщениям
Вы не можете скачивать файлы