Мёртвые как я: Жизнь после смерти / Dead Like Me: Life After Death (Стивен Херек / Stephen Herek) [2009, США, Мистика, драма, комедия, HDRip] MVO (TV3 россия) + original eng

Ответить на тему
 
Автор
Сообщение

awk05 ®

Пол:

Стаж: 6 лет 4 месяца

Сообщений: 1348

Репутация: 275 [+] [-]

Откуда: Западная Украина Ривне

Пост 21-Янв-2014 04:48

[Цитировать] 

--Мёртвые как я: Жизнь после смерти / Dead Like Me: Life After Death -- Год выпуска: 2009
Страна: США
Жанр: Мистика, черная комедия, драма
Продолжительность: 01:27:13
Перевод: Профессиональный (полное дублирование) ТВ3,
Оригинальная аудиодорожка: английский
Русские субтитры: нет--
Режиссёр: Стивен Херек / Stephen Herek--
В ролях: Эллен Муф, Каллум Блу, Сара Уайнтер, Жасмин Гай, Бритт МакКиллип, Кристин Уиллз, Синтия Стивенсон, Генри Йен Кьюсик, Кристал Даль, Джордан Хадима ... и другие.--
Описание: Фильм снят по мотивам известного телесериала «Мёртвые как я» и повествует о команде жнецов, собирающих души. Действие происходит спустя 4 года после событий, вошедших в сериал. Дэр Вафель Хаус сгорел, а главный жнец Руб ушел в отставку. У остальных появился новый босс — Камерон Кэйн — скользкий бизнесмен, который мало заботится о новоиспеченных мертвецах.--
Качество: HDTV
Формат: AVI
Видео кодек: XVID
Аудио кодек: MP3
Видео: 720x400 (16:9), 23.976 fps, ~2000 kbps avg, 0.290 Бит/(Пиксели*Кадры)
Аудио: Русский, 48 kHz, 2 ch, 128.00 kbps; (TB3
Аудио: Английский, 48 kHz, 2 ch, 128.00 kbps;;--
--

MediaInfo

Общее
Полное имя : D:\раздачи\Dead.Like.Me.Life.After.Death.2009.rus.eng.HDRip.BigMOVIEGroup.avi
Формат : AVI
Формат/Информация : Audio Video Interleave
Размер файла : 1,38 Гбайт
Продолжительность : 1 ч. 27 м.
Общий поток : 2269 Кбит/сек
Программа кодирования : VirtualDubMod 1.5.10.2 (build 2540/release)
Библиотека кодирования : VirtualDubMod build 2540/release
Видео
Идентификатор : 0
Формат : MPEG-4 Visual
Профиль формата : Advanced Simple@L5
Параметр BVOP формата : 1
Параметр QPel формата : Нет
Параметр GMC формата : Без точки перехода
Параметр матрицы формата : Default (H.263)
Идентификатор кодека : XVID
Идентификатор кодека/Подсказка : XviD
Продолжительность : 1 ч. 27 м.
Битрейт : 2000 Кбит/сек
Ширина : 720 пикселей
Высота : 400 пикселей
Соотношение сторон : 16:9
Частота кадров : 23,976 кадра/сек
Цветовое пространство : YUV
Субдискретизация насыщенности : 4:2:0
Битовая глубина : 8 бит
Тип развёртки : Прогрессивная
Метод сжатия : С потерями
Бит/(Пиксели*Кадры) : 0.290
Размер потока : 1,22 Гбайт (88%)
Библиотека кодирования : XviD 1.2.1 (UTC 2008-12-04)
Аудио #1
Идентификатор : 1
Формат : MPEG Audio
Версия формата : Version 1
Профиль формата : Layer 3
Режим : Joint stereo
Расширение режима : MS Stereo
Идентификатор кодека : 55
Идентификатор кодека/Подсказка : MP3
Продолжительность : 1 ч. 27 м.
Вид битрейта : Постоянный
Битрейт : 128 Кбит/сек
Каналы : 2 канала
Частота : 48,0 КГц
Метод сжатия : С потерями
Размер потока : 79,9 Мбайт (6%)
Выравнивание : Соединение по промежуткам
Продолжительность промежутка : 42 мс. (1,00 видеокадр)
Время предзагрузки промежутка : 504 мс.
Аудио #2
Идентификатор : 2
Формат : MPEG Audio
Версия формата : Version 1
Профиль формата : Layer 3
Идентификатор кодека : 55
Идентификатор кодека/Подсказка : MP3
Продолжительность : 1 ч. 27 м.
Вид битрейта : Постоянный
Битрейт : 128 Кбит/сек
Каналы : 2 канала
Частота : 48,0 КГц
Метод сжатия : С потерями
Размер потока : 79,9 Мбайт (6%)
Выравнивание : Соединение по промежуткам
Продолжительность промежутка : 42 мс. (1,00 видеокадр)
Время предзагрузки промежутка : 504 мс.
Библиотека кодирования : LAME3.97
Настройки программы : -m s -V 4 -q 2 -lowpass 17 -b 128

_________________
[Торрент-статистика]
[Профиль]  [ЛС] 
Показать сообщения:    
Ответить на тему

Текущее время: Сегодня 22:49

Часовой пояс: GMT + 4



Вы не можете начинать темы
Вы не можете отвечать на сообщения
Вы не можете редактировать свои сообщения
Вы не можете удалять свои сообщения
Вы не можете голосовать в опросах
Вы не можете прикреплять файлы к сообщениям
Вы не можете скачивать файлы