Легкое поведение / Easy Virtue (Стефан Эллиотт / Stephan Elliott) [2008, Великобритания, Канада, мелодрама, комедия, BDRip] Dub + Sub Rus + Original Eng

Ответить на тему
 
Автор
Сообщение

awk05 ®

Пол:

Стаж: 6 лет 4 месяца

Сообщений: 1348

Репутация: 275 [+] [-]

Откуда: Западная Украина Ривне

Пост 20-Янв-2014 20:05

[Цитировать] 

--Легкое поведение / Easy Virtue-- Страна: Великобритания, Канада
Жанр: мелодрама, комедия
Год выпуска: 2008
Продолжительность: 01:36:36
Перевод: Профессиональный (дублированный)
Cубтитры: русские, английские
Оригинальная аудиодорожка: английский--Режиссер: Стефан Эллиотт / Stephan Elliott--В ролях: Джессика Бил (Larita Whittaker), Бен Барнс (John Whittaker), Кристин Скотт Томас (Veronica Whittaker), Колин Фёрт (Mr. Whittaker), Кимберли Никсон (Hilda Whittaker), Кэтрин Паркинсон (Marion Whittaker), Крис Маршалл (Furber), Кристиан Брассингтон (Phillip Hurst), Шарлотта Райли (Sarah Hurst), Джим МакМанус (Jackson), Пип Торренс (Lord Hurst), Джереми Хутон (Davis)--Дублёры: Полина Щербакова (Larita Whittaker), Илья Бледный (John Whittaker), Ольга Сирина, Всеволод Кузнецов (Mr. Whittaker), Ольга Голованова (Hilda Whittaker), Жанна Никонова (Marion Whittaker), Андрей Градов (Furber), Константин Карасик (Phillip Hurst), Лариса Некипелова (Sarah Hurst), Олег Форостенко (Lord Hurst)--Описание: Молодой англичанин Джон Уитэкер страстно влюбляется в сексуальную американку Лариту. Бурный роман, горячие простыни, скорый брак и нежный медовый месяц с романтическими коктейлями на побережье...
Но, выходя замуж, Ларита даже в страшном сне не могла себе представить, какое будущее ее ждет.
Оказавшись в классическом чопорном английском доме, избалованной красотке приходится выдержать смертельную схватку... со свекровью, которая ну никак не может мириться с легким поведением своей невестки.--Качество видео: BDRip
Формат видео: AVI
Видео кодек: XviD
Аудио кодек: AC3
Видео: 720x304 (2.37:1), 23.976 fps, XviD build 65 ~1698 kbps avg, 0.32 bit/pixel
Аудио 1: 48 kHz, AC3 Dolby Digital, 3/2 (L,C,R,l,r) + LFE ch, ~448 kbps - Dub
Аудио 2: 48 kHz, AC3 Dolby Digital, 3/2 (L,C,R,l,r) + LFE ch, ~448 kbps - Eng - отдельно
Формат субтитров: softsub (SRT)--

MediaInfo

Общее
Полное имя : D:\Torrent\Легкое поведение\Легкое поведение_1.46\Легкое поведение_1.46\Легкое поведение_1.46.avi
Формат : AVI
Формат/Информация : Audio Video Interleave
Размер файла : 1,45 Гбайт
Продолжительность : 1 ч. 36 м.
Общий поток : 2155 Кбит/сек
Программа кодирования : VirtualDubMod 1.5.10.3 | www.virtualdub-fr.org || (build 2550/release)
Библиотека кодирования : VirtualDubMod build 2550/release
Видео
Идентификатор : 0
Формат : MPEG-4 Visual
Профиль формата : Advanced Simple@L5
Параметр BVOP формата : 1
Параметр QPel формата : Нет
Параметр GMC формата : Без точки перехода
Параметр матрицы формата : Выборочная
Идентификатор кодека : XVID
Идентификатор кодека/Подсказка : XviD
Продолжительность : 1 ч. 36 м.
Битрейт : 1699 Кбит/сек
Ширина : 720 пикселей
Высота : 304 пикселя
Соотношение сторон : 2,35:1
Частота кадров : 23,976 кадра/сек
Цветовое пространство : YUV
Субдискретизация насыщенности : 4:2:0
Битовая глубина : 8 бит
Тип развёртки : Прогрессивная
Метод сжатия : С потерями
Бит/(Пиксели*Кадры) : 0.324
Размер потока : 1,15 Гбайт (79%)
Библиотека кодирования : XviD 65
Аудио
Идентификатор : 1
Формат : AC-3
Формат/Информация : Audio Coding 3
Расширение режима : CM (complete main)
Параметр Endianness формата : Big
Идентификатор кодека : 2000
Продолжительность : 1 ч. 36 м.
Вид битрейта : Постоянный
Битрейт : 448 Кбит/сек
Каналы : 6 каналов
Расположение каналов : Front: L C R, Side: L R, LFE
Частота : 48,0 КГц
Битовая глубина : 16 бит
Метод сжатия : С потерями
Размер потока : 309 Мбайт (21%)
Выравнивание : Разделение по промежуткам
Продолжительность промежутка : 42 мс. (1,00 видеокадр)
Время предзагрузки промежутка : 500 мс.
Общее
Полное имя : D:\Torrent\Легкое поведение\Легкое поведение_1.46\Легкое поведение_1.46\Легкое поведение_1.46_eng.ac3
Формат : AC-3
Формат/Информация : Audio Coding 3
Размер файла : 268 Мбайт
Продолжительность : 1 ч. 23 м.
Режим общего битрейта : Постоянный
Общий поток : 448 Кбит/сек
Аудио
Формат : AC-3
Формат/Информация : Audio Coding 3
Расширение режима : CM (complete main)
Параметр Endianness формата : Big
Продолжительность : 1 ч. 23 м.
Вид битрейта : Постоянный
Битрейт : 448 Кбит/сек
Каналы : 6 каналов
Расположение каналов : Front: L C R, Side: L R, LFE
Частота : 48,0 КГц
Битовая глубина : 16 бит
Метод сжатия : С потерями
Размер потока : 268 Мбайт (100%)
Общее
Полное имя : D:\Torrent\Легкое поведение\Легкое поведение_1.46\Легкое поведение_1.46\Легкое поведение_1.46_Eng.srt
Размер файла : 195 Кбайт
Общее
Полное имя : D:\Torrent\Легкое поведение\Легкое поведение_1.46\Легкое поведение_1.46\Легкое поведение_1.46_Rus.srt
Размер файла : 201 Кбайт

Скриншоты


_________________
[Торрент-статистика]
[Профиль]  [ЛС] 
Показать сообщения:    
Ответить на тему

Текущее время: Сегодня 04:32

Часовой пояс: GMT + 4



Вы не можете начинать темы
Вы не можете отвечать на сообщения
Вы не можете редактировать свои сообщения
Вы не можете удалять свои сообщения
Вы не можете голосовать в опросах
Вы не можете прикреплять файлы к сообщениям
Вы не можете скачивать файлы