Легион / Legion (Скотт Чарльз Стюарт / Scott Charles Stewart) [2009, США, Ужасы, фэнтези, боевик, BDRip] Dub

Ответить на тему
 
Автор
Сообщение

awk05 ®

Пол:

Стаж: 5 лет 11 месяцев

Сообщений: 1352

Репутация: 275 [+] [-]

Откуда: Западная Украина Ривне

Пост 20-Янв-2014 15:31

[Цитировать] 

--Легион / Legion
«И идет он со тьмами ангелов своих сотворить суд над всеми. И имя им...»
--
Год выпуска: 2009
Выпущено: США / Bold Films
Жанр: ужасы, фэнтези, боевик
Продолжительность: 01:40:08
Перевод: Профессиональный (полное дублирование) CEE
Cубтитры: нет--Режиссер:Скотт Чарльз Стюарт / Scott Charles Stewart--В ролях: Пол Беттани (Michael), Лукас Блэк (Jeep Hanson), Тайриз Гибсон (Kyle Williams), Эдрианн Палики (Charlie), Чарльз С. Даттон (Percy Walker), Джон Тенни (Howard Anderson), Кевин Дюран (Gabriel), Уилла Холланд (Audrey Anderson), Кейт Уолш (Sandra Anderson), Деннис Куэйд (Bob Hanson), Жанетт Миллер (Gladys Foster)--Описание: Бог окончательно разуверился в человечестве и послал ангелов смерти стереть свое творение с лица земли. На защиту людей встал лишь архангел Михаил, объединив под своим командованием горстку изгоев, которые в закусочной посреди пустыни терпеливо ожидают рождения Мессии.--Качество: BDRip
Формат: AVI
Видео кодек: XviD
Аудио кодек: AC3
Видео: 720x304 (2.37:1), 23.976 fps, XviD build 73 ~1625 kbps avg, 0.31 bit/pixel
Аудио: 48 kHz, AC3 Dolby Digital, 3/2 (L,C,R,l,r) + LFE ch, ~448.00 kbps avg-- --

Скриншоты

MediaInfo

Код:
General
Complete name : D:\Legion_2009_BDRip_by_Dalemake.avi
Format : AVI
Format/Info : Audio Video Interleave
File size : 1.46 GiB
Duration : 1h 40mn
Overall bit rate : 2 083 Kbps
Writing application : VirtualDubMod 1.5.10.3 | www.virtualdub-fr.org || (build 2550/release)
Writing library : VirtualDubMod build 2550/release
Video
ID : 0
Format : MPEG-4 Visual
Format profile : Advanced Simple@L5
Format settings, BVOP : 1
Format settings, QPel : No
Format settings, GMC : No warppoints
Format settings, Matrix : Custom
Codec ID : XVID
Codec ID/Hint : XviD
Duration : 1h 40mn
Bit rate : 1 626 Kbps
Width : 720 pixels
Height : 304 pixels
Display aspect ratio : 2.35:1
Frame rate : 23.976 fps
Color space : YUV
Chroma subsampling : 4:2:0
Bit depth : 8 bits
Scan type : Progressive
Compression mode : Lossy
Bits/(Pixel*Frame) : 0.310
Stream size : 1.14 GiB (78%)
Writing library : XviD 73
Audio
ID : 1
Format : AC-3
Format/Info : Audio Coding 3
Mode extension : CM (complete main)
Format settings, Endianness : Big
Codec ID : 2000
Duration : 1h 40mn
Bit rate mode : Constant
Bit rate : 448 Kbps
Channel(s) : 6 channels
Channel positions : Front: L C R, Side: L R, LFE
Sampling rate : 48.0 KHz
Bit depth : 16 bits
Compression mode : Lossy
Stream size : 321 MiB (22%)
Alignment : Split accross interleaves
Interleave, duration : 42 ms (1.00 video frame)
Interleave, preload duration : 500 ms

_________________
[Торрент-статистика]
[Профиль]  [ЛС] 
Показать сообщения:    
Ответить на тему

Текущее время: Сегодня 01:36

Часовой пояс: GMT + 4



Вы не можете начинать темы
Вы не можете отвечать на сообщения
Вы не можете редактировать свои сообщения
Вы не можете удалять свои сообщения
Вы не можете голосовать в опросах
Вы не можете прикреплять файлы к сообщениям
Вы не можете скачивать файлы