Кровь за кровь / Четыре брата / Four Brothers (Джон Синглтон / John Singleton) [2005, боевик, триллер, драма, BDRip] Dub + MVO + AVO (Немахов) + original + sub (rus, eng)

Ответить на тему
 
Автор
Сообщение

awk05 ®

Пол:

Стаж: 5 лет 8 месяцев

Сообщений: 1352

Репутация: 275 [+] [-]

Откуда: Западная Украина Ривне

Пост 20-Янв-2014 02:17

[Цитировать] 

--Кровь за кровь / Four Brothers--«Они вернулись домой, чтобы похоронить мать... и её убийц.»-- Год выпуска: 2005
Страна: США, Paramount Pictures
Жанр: боевик, триллер, драма, криминал, детектив
Продолжительность: 01:48:45
Перевод: Профессиональный (полное дублирование), Профессиональный (многоголосый, закадровый), Авторский (Немахов Юрий)
Русские субтитры: есть (внешние)--Режиссер: Джон Синглтон / John Singleton--В ролях: Марк Уолберг (Bobby Mercer), Тайриз Гибсон (Angel Mercer), Андре Бенджамин (Jeremiah Mercer), Гаррет Хедлунд (Jack Mercer), Терренс Ховард (Lt. Green), Джош Чарльз (Detective Fowler), София Вергара (Sofi), Фионнула Флэнаган (Evelyn Mercer), Чиветел Эджиофор (Victor Sweet), Тараджи П. Хенсон (Camille Mercer), Бэрри Шебака Хенли (Councilman Douglas), Джернард Буркс (Evan)--Дублёры: Всеволод Кузнецов (Bobby Mercer), Алексей Мясников (Angel Mercer), Юрий Деркач (Jeremiah Mercer), Сергей Бурунов (Jack Mercer), Никита Прозоровский (Lt. Green), Владимир Еремин (Detective Fowler), Татьяна Шитова (Sofi), Владимир Зайцев (Victor Sweet), Ольга Кузнецова (Camille Mercer), Андрей Ярославцев (Councilman Douglas), Александр Новиков (Evan), Олег Форостенко (Robert Bradford)--Описание: Они вернулись домой, чтобы похоронить мать.. и её убийц… Их четверо, они братья, но абсолютно не похожи друг на друга. В детстве их усыновила и воспитала одна и та же женщина. Теперь она мертва, а братья пытаются найти ее убийцу и отплатить ему за пролитую кровь их матери. Чем больше братья занимаются поисками, тем ближе они становятся друг другу, осознавая, что родство душ связывает людей гораздо крепче, чем кровные узы.--Качество: BDRip
Формат: AVI
Видео кодек: XviD
Аудио кодек: AC3, MP3
Видео: XviD; 720x304 (2,35:1), 1464 Kbps; 23,976 fps; 0,279 bpp
Аудио №1: MP3; 48 kHz, 128 Kbps; CBR; 2 ch |DUB|
Аудио №2: AC3; 48 kHz, 192 Kbps; CBR; 2 ch |MVO|
Аудио №3: MP3; 48 kHz, 128 Kbps; CBR; 2 ch |AVO|
Аудио №4: AC3; 48 kHz, 384 Kbps; VBR; 6 ch |ENG|
Субтитры: русские, английские (srt)-- --

MediaInfo

Общее
Полное имя : D:\раздачи\Fou. Brother.2005.BDRip\Four.Brother.2005.avi
Формат : AVI
Формат/Информация : Audio Video Interleave
Размер файла : 1,47 Гбайт
Продолжительность : 1 ч. 48 м.
Общий поток : 1930 Кбит/сек
Режиссёр : zim2001
Программа кодирования : VirtualDubMod 1.5.10.2 (build 2540/release)
Видео
Идентификатор : 0
Формат : MPEG-4 Visual
Профиль формата : Advanced Simple@L5
Параметр BVOP формата : 2
Параметр QPel формата : Нет
Параметр GMC формата : Без точки перехода
Параметр матрицы формата : Выборочная
Идентификатор кодека : XVID
Идентификатор кодека/Подсказка : XviD
Продолжительность : 1 ч. 48 м.
Битрейт : 1464 Кбит/сек
Ширина : 720 пикселей
Высота : 304 пикселя
Соотношение сторон : 2,35:1
Частота кадров : 23,976 кадра/сек
Цветовое пространство : YUV
Субдискретизация насыщенности : 4:2:0
Битовая глубина : 8 бит
Тип развёртки : Прогрессивная
Метод сжатия : С потерями
Бит/(Пиксели*Кадры) : 0.279
Размер потока : 1,11 Гбайт (76%)
Библиотека кодирования : XviD 1.2.1 (UTC 2008-12-04)
Аудио #1
Идентификатор : 1
Формат : MPEG Audio
Версия формата : Version 1
Профиль формата : Layer 3
Режим : Joint stereo
Расширение режима : MS Stereo
Идентификатор кодека : 55
Идентификатор кодека/Подсказка : MP3
Продолжительность : 1 ч. 48 м.
Вид битрейта : Постоянный
Битрейт : 128 Кбит/сек
Каналы : 2 канала
Частота : 48,0 КГц
Метод сжатия : С потерями
Размер потока : 99,6 Мбайт (7%)
Выравнивание : Соединение по промежуткам
Продолжительность промежутка : 42 мс. (1,00 видеокадр)
Время предзагрузки промежутка : 504 мс.
Аудио #2
Идентификатор : 2
Формат : AC-3
Формат/Информация : Audio Coding 3
Расширение режима : CM (complete main)
Параметр Endianness формата : Big
Идентификатор кодека : 2000
Продолжительность : 1 ч. 48 м.
Вид битрейта : Постоянный
Битрейт : 192 Кбит/сек
Каналы : 2 канала
Расположение каналов : Front: L R
Частота : 48,0 КГц
Битовая глубина : 16 бит
Метод сжатия : С потерями
Размер потока : 149 Мбайт (10%)
Выравнивание : Разделение по промежуткам
Продолжительность промежутка : 42 мс. (1,00 видеокадр)
Время предзагрузки промежутка : 500 мс.
Аудио #3
Идентификатор : 3
Формат : MPEG Audio
Версия формата : Version 1
Профиль формата : Layer 3
Режим : Joint stereo
Расширение режима : MS Stereo
Идентификатор кодека : 55
Идентификатор кодека/Подсказка : MP3
Продолжительность : 1 ч. 48 м.
Вид битрейта : Постоянный
Битрейт : 128 Кбит/сек
Каналы : 2 канала
Частота : 48,0 КГц
Метод сжатия : С потерями
Размер потока : 99,6 Мбайт (7%)
Выравнивание : Соединение по промежуткам
Продолжительность промежутка : 42 мс. (1,00 видеокадр)
Время предзагрузки промежутка : 504 мс.

_________________
[Торрент-статистика]
[Профиль]  [ЛС] 
Показать сообщения:    
Ответить на тему

Текущее время: Сегодня 01:35

Часовой пояс: GMT + 4



Вы не можете начинать темы
Вы не можете отвечать на сообщения
Вы не можете редактировать свои сообщения
Вы не можете удалять свои сообщения
Вы не можете голосовать в опросах
Вы не можете прикреплять файлы к сообщениям
Вы не можете скачивать файлы