Киллер / Killshot (Джон Мэдден / John Madden) [2008, триллер, драма, криминал, BDRip-AVC] Dub

Ответить на тему
 
Автор
Сообщение

awk05 ®

Пол:

Стаж: 6 лет 4 месяца

Сообщений: 1348

Репутация: 275 [+] [-]

Откуда: Западная Украина Ривне

Пост 19-Янв-2014 19:32

[Цитировать] 

--Киллер / Killshot-- Год выпуска: 2008
Страна: США
Жанр: триллер, драма, криминал
Продолжительность: 01:35:10
Перевод: Профессиональный (полное дублирование)
Cубтитры: нет--Режиссер: Джон Мэдден / John Madden--В ролях: Дайан Лэйн, Микки Рурк, Томас Джейн, Джозеф Гордон-Левитт, Розарио Доусон, Алексис Батлер, Хэл Холбрук, Брэндон МакГибон, Роберт Гоу, Катрин Хэйос--Описание: По одноименному бестселлеру Элмора Леонарда.
Черный Дрозд - киллер. По его собственному признанию, он "отстреливает людей. Иногда за бабки, иногда просто так".
Ностальгическое кино. Гениальный в своей простоте (пустоте) сюжет, нулевая интрига (семейная пара накануне развода вынуждена пройти через испытания и обрести друг друга вновь), звездный актер в роли киллера с принципами, один индеец, одна девушка-негр, и главное - все самое-самое (убийства, секс) происходит за кадром. Киллер стреляет много, но в кадре лишь пистолет и спокойное лицо Мики Рурка.
Вряд ли такое можно специально "слажать". Есть же такие модные свитера - швы наружу. Вот здесь такой случай. Венец творения - наш одноголосый перевод "с прищепкой".--Качество: BDRip-AVC
Формат: MKV
Видео кодек: AVC
Аудио кодек: AC3
Видео: 1020x434 (2.35:1), 24.000 кадра/сек, 1805 Кбит/сек, 0.170 Бит/(Пиксели*Кадры)
Аудио 1: 6 каналов Front: L C R, Side: L R, LFE, 48,0 КГц, 384.00 Кбит/сек
Аудио 2: 2 канала Front: L R, 48,0 КГц, 224 Кбит/сек--

MediaInfo

General
Unique ID : 199154917013479760033921374930367590089 (0x95D3D781D4DD94B28FF66776DB66AEC9)
Complete name : E:\Downloads\Killer.chopper887.mkv
Format : Matroska
File size : 1.46 GiB
Duration : 1h 35mn
Overall bit rate : 2 190 Kbps
Movie name : Killer.chopper887
Encoded date : UTC 2012-03-02 14:16:00
Writing application : mkvmerge v4.8.0 ('I Got The...') сборка от May 24 2011 03:12:58
Writing library : libebml v1.2.0 + libmatroska v1.1.0
Video
ID : 1
Format : AVC
Format/Info : Advanced Video Codec
Format profile : High@L4.1
Format settings, CABAC : Yes
Format settings, ReFrames : 9 frames
Format settings, GOP : M=2, N=20
Codec ID : V_MPEG4/ISO/AVC
Duration : 1h 35mn
Bit rate : 1 805 Kbps
Width : 1 020 pixels
Height : 434 pixels
Display aspect ratio : 2.35:1
Frame rate : 24.000 fps
Color space : YUV
Chroma subsampling : 4:2:0
Bit depth : 8 bits
Scan type : Progressive
Bits/(Pixel*Frame) : 0.170
Stream size : 1.17 GiB (80%)
Title : Killer.chopper887
Writing library : x264 core 120 r2164 da19765
Encoding settings : cabac=1 / ref=9 / deblock=1:-2:-1 / analyse=0x3:0x133 / me=umh / subme=11 / psy=1 / psy_rd=0.95:0.05 / mixed_ref=1 / me_range=32 / chroma_me=1 / trellis=2 / 8x8dct=1 / cqm=0 / deadzone=21,11 / fast_pskip=0 / chroma_qp_offset=-3 / threads=12 / sliced_threads=0 / nr=0 / decimate=1 / interlaced=0 / bluray_compat=0 / constrained_intra=0 / bframes=5 / b_pyramid=2 / b_adapt=2 / b_bias=0 / direct=3 / weightb=1 / open_gop=0 / weightp=2 / keyint=240 / keyint_min=24 / scenecut=40 / intra_refresh=0 / rc_lookahead=80 / rc=2pass / mbtree=1 / bitrate=1805 / ratetol=1.0 / qcomp=0.60 / qpmin=10 / qpmax=51 / qpstep=4 / cplxblur=20.0 / qblur=0.5 / ip_ratio=1.40 / aq=1:1.00
Language : English
Audio
ID : 2
Format : AC-3
Format/Info : Audio Coding 3
Mode extension : CM (complete main)
Codec ID : A_AC3
Duration : 1h 35mn
Bit rate mode : Constant
Bit rate : 384 Kbps
Channel(s) : 6 channels
Channel positions : Front: L C R, Side: L R, LFE
Sampling rate : 48.0 KHz
Bit depth : 16 bits
Compression mode : Lossy
Stream size : 261 MiB (18%)
Title : Dub

Cкриншоты


_________________
[Торрент-статистика]
[Профиль]  [ЛС] 
Показать сообщения:    
Ответить на тему

Текущее время: Сегодня 00:13

Часовой пояс: GMT + 4



Вы не можете начинать темы
Вы не можете отвечать на сообщения
Вы не можете редактировать свои сообщения
Вы не можете удалять свои сообщения
Вы не можете голосовать в опросах
Вы не можете прикреплять файлы к сообщениям
Вы не можете скачивать файлы