И грянул гром / A Sound of Thunder (Питер Хайемс / Peter Hyams) [2005, США, Германия, Чехия , фантастика, боевик, триллер, приключения, DVDRip] DUB

Ответить на тему
 
Автор
Сообщение

awk05 ®

Пол:

Стаж: 5 лет 8 месяцев

Сообщений: 1352

Репутация: 275 [+] [-]

Откуда: Западная Украина Ривне

Пост 18-Янв-2014 22:36

[Цитировать] 

--И грянул гром / A Sound of Thunder-- Страна: США, Германия, Чехия / Warner Bros. /
Жанр: фантастика, боевик, триллер, приключения
Год выпуска: 2005
Продолжительность: 01:43:25.
Перевод: Профессиональный (дублированный)
Cубтитры: нет--Режиссер: Питер Хайемс / Peter Hyams--В ролях: Эдвард Бернс /Edward Burns/, Бен Кингсли /Ben Kingsley/, Джемайма Рупер /Jemima Rooper/, Вильфред Хочхолдингер /Wilfried Hochholdinger/, Аугуст Зирнер /August Zirner/--Описание: По одноименному рассказу Рэя Брэдберри. В недалеком будущем, путешествия во времени станут удивительной, непредсказуемой реальностью. За деньги, богатые путешественники могут пробудить свои дремлющие инстинкты охотников, заказывая доисторические сафари, чтобы охотиться на настоящих живых динозавров. Есть только три важных правила, которые нельзя нарушать: не менять ничего в прошлом; не оставлять ничего там; и самое важное - ничего не брать с собой назад. Малейшее изменение могло бы привести к глобальному изменению эволюции способами, которые даже трудно представить.Однако несмотря на все меры предосторожности незапланированное изменение прошлого происходит...--Качество: DVDRip
Формат: AVI
Видео кодек: XviD
Аудио кодек: AC3
Видео: 720x288 (2.50:1), 23,976 кадра/сек, 1567 Кбит/сек, 0.32 Бит/(Пиксели*Кадры)
Аудио: 6 каналов Front: L C R, Side: L R, LFE, 48,0 КГц, 448 Кбит/сек--

MediaInfo

General
Complete name : J:\I grianul grom.1.46.Dub.chopper887.avi
Format : AVI
Format/Info : Audio Video Interleave
File size : 1.46 GiB
Duration : 1h 43mn
Overall bit rate : 2 022 Kbps
Writing application : VirtualDubMod 1.5.10.2 (build 2540/release)
Writing library : VirtualDubMod build 2540/release
Video
ID : 0
Format : MPEG-4 Visual
Format profile : AdvancedSimple@L5
Format settings, BVOP : Yes
Format settings, QPel : No
Format settings, GMC : No warppoints
Format settings, Matrix : Custom
Codec ID : XVID
Codec ID/Hint : XviD
Duration : 1h 43mn
Bit rate : 1 568 Kbps
Width : 720 pixels
Height : 288 pixels
Display aspect ratio : 2.500
Frame rate : 23.976 fps
Resolution : 24 bits
Colorimetry : 4:2:0
Scan type : Progressive
Bits/(Pixel*Frame) : 0.315
Stream size : 1.13 GiB (78%)
Writing library : XviD 1.2.1 (UTC 2008-12-04)
Audio
ID : 1
Format : AC-3
Format/Info : Audio Coding 3
Codec ID : 2000
Duration : 1h 42mn
Bit rate mode : Constant
Bit rate : 448 Kbps
Channel(s) : 6 channels
Channel positions : Front: L C R, Surround: L R, LFE
Sampling rate : 48.0 KHz
Stream size : 329 MiB (22%)
Alignment : Split accross interleaves
Interleave, duration : 42 ms (1.01 video frame)
Interleave, preload duration : 500 ms

_________________


Последний раз редактировалось: awk05 (2014-01-19 04:26), всего редактировалось 1 раз
[Торрент-статистика]
[Профиль]  [ЛС] 
Показать сообщения:    
Ответить на тему

Текущее время: Сегодня 02:13

Часовой пояс: GMT + 4



Вы не можете начинать темы
Вы не можете отвечать на сообщения
Вы не можете редактировать свои сообщения
Вы не можете удалять свои сообщения
Вы не можете голосовать в опросах
Вы не можете прикреплять файлы к сообщениям
Вы не можете скачивать файлы