Жить или умереть / Living & Dying (Джон Кейес /Jon Keeyes) [2007 г., боевик, триллер, драма, криминал, DVDRip]

Ответить на тему
 
Автор
Сообщение

awk05 ®

Пол:

Стаж: 5 лет 8 месяцев

Сообщений: 1352

Репутация: 275 [+] [-]

Откуда: Западная Украина Ривне

Пост 18-Янв-2014 14:40

[Цитировать] 

--Жить или умереть / Living & Dying--
Год выпуска: 2007
Страна: США
Жанр: боевик, триллер, драма, криминал
Продолжительность: 90 мин.
Перевод: Профессиональный (многоголосый, закадровый)
Субтитры: отсутствуют--Режиссер: Джон Кейес /Jon Keeyes/--В ролях: Эдвард Ферлонг, Майкл Мэдсен, Арнольд Вослоу, Линь Бай, Джордана Спиро--Описание: Трое ребят и девушка грабят банк, но на обратном пути их автомобиль блокирует полиция. В начавшейся перестрелке один из грабителей убит, девушка ранена. Они забегают в первое попавшееся кафе и закрываются в нем вместе со всеми посетителями. Полиция блокирует кафе и начинается осада. Проблема лишь в том, что в кафе в это время находятся два наемных убийцы, которые собираются перебить всех и выскочить из ловушки.--Качество: DVDRip
Формат: AVI
Видео кодек: DivX
Аудио кодек: MPEG Layer 3
Видео: 720x576 (5:4), 25,000 кадра/сек, 1498 Кбит/сек, 0.144 Бит/(Пиксели*Кадры)
Аудио 1: 2 канала Front: L R, 48,0 КГц, 256 Кбит/сек--

MediaInfo

Общее
Полное имя : E:\Films\Living & Dying.avi
Формат : AVI
Формат/Информация : Audio Video Interleave
Профиль формата : OpenDML
Размер файла : 1,08 Гбайт
Продолжительность : 1 ч. 27 м.
Общий поток : 1771 Кбит/сек
Программа кодирования : Lavf51.12.1
Видео
Идентификатор : 0
Формат : MPEG-4 Visual
Профиль формата : Simple@L1
Параметр BVOP формата : Нет
Параметр QPel формата : Нет
Параметр GMC формата : Без точки перехода
Параметр матрицы формата : Default (H.263)
Идентификатор кодека : DX50
Идентификатор кодека/Подсказка : DivX 5
Продолжительность : 1 ч. 27 м.
Битрейт : 1498 Кбит/сек
Ширина : 720 пикселей
Высота : 576 пикселей
Соотношение сторон : 5:4
Частота кадров : 25,000 кадров/сек
Стандарт вещания : PAL
Цветовое пространство : YUV
Субдискретизация насыщенности : 4:2:0
Битовая глубина : 8 бит
Тип развёртки : Прогрессивная
Метод сжатия : С потерями
Бит/(Пиксели*Кадры) : 0.144
Размер потока : 934 Мбайт (85%)
Библиотека кодирования : Lavc51.40.4
Аудио
Идентификатор : 1
Формат : MPEG Audio
Версия формата : Version 1
Профиль формата : Layer 3
Режим : Joint stereo
Расширение режима : MS Stereo
Идентификатор кодека : 55
Идентификатор кодека/Подсказка : MP3
Продолжительность : 1 ч. 27 м.
Вид битрейта : Постоянный
Битрейт : 256 Кбит/сек
Каналы : 2 канала
Частота : 48,0 КГц
Метод сжатия : С потерями
Размер потока : 160 Мбайт (14%)
Выравнивание : Соединение по промежуткам
Продолжительность промежутка : 24 мс. (0,60 видеокадр)
Время предзагрузки промежутка : 24 мс.

_________________
[Торрент-статистика]
[Профиль]  [ЛС] 
Показать сообщения:    
Ответить на тему

Текущее время: Сегодня 02:10

Часовой пояс: GMT + 4



Вы не можете начинать темы
Вы не можете отвечать на сообщения
Вы не можете редактировать свои сообщения
Вы не можете удалять свои сообщения
Вы не можете голосовать в опросах
Вы не можете прикреплять файлы к сообщениям
Вы не можете скачивать файлы