Хаос / Chaos (Тони Гиглио / Tony Giglio) [2005 г., боевик, триллер, драма, криминал, BDRip-AVC] Dub + Original (Eng) + Sub (Rus, Eng)

Ответить на тему
 
Автор
Сообщение

awk05 ®

Пол:

Стаж: 5 лет 10 месяцев

Сообщений: 1352

Репутация: 275 [+] [-]

Откуда: Западная Украина Ривне

Пост 16-Янв-2014 01:03

[Цитировать] 

--Хаос/Chaos--«Кто у нас тут крыса?»--
Страна: Канада, Великобритания, США
Жанр: боевик, триллер, драма, криминал
Год выпуска: 2005
Продолжительность: 01:46:50
Перевод: Профессиональный (полное дублирование)
Оригинальная аудиодорожка: Английская
Субтитры: Русские, Английские (2 вида)--Режиссер: Тони Гиглио / Tony Giglio--В ролях: Джейсон Стэйтем (Quentin Conners), Райан Филипп (Shane Dekker), Уэсли Снайпс (Lorenz / Jason York), Генри Черни (Capt. Martin Jenkins), Джастин Уоддэлл (Det. Teddy Galloway), Николас Лиа (Det. Vincent Durano), Джессика Стин (Karen Cross), Роб ЛаБелль (Bank Manager), Джон Кассини (Bernie Callo), Дэймон Джонсон (Brandon Dax), Пол Перри (Harry Hume), Киган Коннор Трейси (Marnie Rollins)--Описание: Самым обычным утром банда грабителей захватывает банк и берет в заложники всех, кто в нем находится. Полиция окружает здание банка. Вожак банды Лоренц требует вызвать переговорщика, настаивая на том, что им может быть только детектив Коннерс. А так как Коннерс числится в полиции «на плохом счету», к нему приставляют напарника - новичка Деккера.
Пока Коннерс ведет переговоры, в банк врывается полицейский спецназ. В начавшемся хаосе грабителям удается смешаться с заложниками и выскользнуть из банка. Но самым странным оказалось то, что грабители не унесли с собой ни единого цента. А вскоре выясняется, что во время осады и перестрелки с банковских счетов компьютерным способом был снят миллиард долларов. Распутывая это дело, Коннерс и Деккер нащупывают нити заговора, ведущие на самый «верх»...--Качество: BDRip-AVC
Формат видео: MKV
Видео кодек: H.264
Аудио кодек: AC3
Видео: AVC, 1128x476 (2.35:1), 3021 kbps, 23,976 fps, 0,235 bpp
Аудио #1: 48 kHz, AC3, 3/2 (L,C,R,l,r) + LFE ch, ~448 kbps | Профессиональный (полное дублирование) |
Аудио #2: 48 kHz, AC3, 3/2 (L,C,R,l,r) + LFE ch, ~448 kbps | Оригинальная английская дорожка |
Формат субтитров: softsub (SRT) | Русские, Английские (2 вида)-- --

Media Info

Код:
Complete name : Chaos 2005 x264 BDRip-AVC Gambit.mkv
Format : Matroska
Format version : Version 2
File size : 2.91 GiB
Duration : 1h 46mn
Overall bit rate : 3 903 Kbps
Encoded date : UTC 2012-12-02 12:53:42
Writing application : mkvmerge v5.6.0 ('Kenya Kane') built on May 27 2012 16:44:04
Writing library : libebml v1.2.3 + libmatroska v1.3.0
Video
ID : 1
Format : AVC
Format/Info : Advanced Video Codec
Format profile : High@L4.0
Format settings, CABAC : Yes
Format settings, ReFrames : 13 frames
Codec ID : V_MPEG4/ISO/AVC
Duration : 1h 46mn
Bit rate : 3 021 Kbps
Width : 1 128 pixels
Height : 476 pixels
Display aspect ratio : 2.35:1
Frame rate : 23.976 fps
Color space : YUV
Chroma subsampling : 4:2:0
Bit depth : 8 bits
Scan type : Progressive
Bits/(Pixel*Frame) : 0.235
Stream size : 2.19 GiB (75%)
Title : Chaos 2005 x264 BDRip-AVC Gambit
Writing library : x264 core 128 r2216kMod 198a7ea
Encoding settings : cabac=1 / ref=13 / deblock=1:-3:-2 / analyse=0x3:0x133 / me=umh / subme=11 / psy=1 / fade_compensate=0.00 / psy_rd=1.05:0.01 / mixed_ref=1 / me_range=40 / chroma_me=1 / trellis=2 / 8x8dct=1 / cqm=0 / deadzone=21,11 / fast_pskip=0 / chroma_qp_offset=-3 / threads=6 / lookahead_threads=1 / sliced_threads=0 / nr=0 / decimate=0 / interlaced=0 / bluray_compat=0 / constrained_intra=0 / bframes=13 / b_pyramid=2 / b_adapt=2 / b_bias=0 / direct=3 / weightb=1 / open_gop=0 / weightp=2 / keyint=250 / keyint_min=23 / scenecut=40 / intra_refresh=0 / rc=2pass / mbtree=0 / bitrate=3021 / ratetol=1.0 / qcomp=0.70 / qpmin=0 / qpmax=69 / qpstep=4 / cplxblur=20.0 / qblur=0.5 / ip_ratio=1.25 / pb_ratio=1.35 / aq=3:0.70 / zones=148301,153001,q=35
Language : English
Default : Yes
Forced : No
Matrix coefficients : BT.709-5, BT.1361, IEC 61966-2-4 709, SMPTE RP177
Audio #1
ID : 2
Format : AC-3
Format/Info : Audio Coding 3
Mode extension : CM (complete main)
Codec ID : A_AC3
Duration : 1h 46mn
Bit rate mode : Constant
Bit rate : 448 Kbps
Channel(s) : 6 channels
Channel positions : Front: L C R, Side: L R, LFE
Sampling rate : 48.0 KHz
Bit depth : 16 bits
Compression mode : Lossy
Stream size : 342 MiB (11%)
Title : Dub
Language : Russian
Default : Yes
Forced : No
Audio #2
ID : 3
Format : AC-3
Format/Info : Audio Coding 3
Mode extension : CM (complete main)
Codec ID : A_AC3
Duration : 1h 46mn
Bit rate mode : Constant
Bit rate : 448 Kbps
Channel(s) : 6 channels
Channel positions : Front: L C R, Side: L R, LFE
Sampling rate : 48.0 KHz
Bit depth : 16 bits
Compression mode : Lossy
Stream size : 342 MiB (11%)
Title : Original (Eng)
Language : English
Default : No
Forced : No
Text #1
ID : 4
Format : UTF-8
Codec ID : S_TEXT/UTF8
Codec ID/Info : UTF-8 Plain Text
Title : Rus
Language : Russian
Default : No
Forced : No
Text #2
ID : 5
Format : UTF-8
Codec ID : S_TEXT/UTF8
Codec ID/Info : UTF-8 Plain Text
Title : Eng #1
Language : English
Default : No
Forced : No
Text #3
ID : 6
Format : UTF-8
Codec ID : S_TEXT/UTF8
Codec ID/Info : UTF-8 Plain Text
Title : Eng #2
Language : English
Default : No
Forced : No

Скриншоты




_________________
[Торрент-статистика]
[Профиль]  [ЛС] 
Показать сообщения:    
Ответить на тему

Текущее время: Сегодня 05:46

Часовой пояс: GMT + 4



Вы не можете начинать темы
Вы не можете отвечать на сообщения
Вы не можете редактировать свои сообщения
Вы не можете удалять свои сообщения
Вы не можете голосовать в опросах
Вы не можете прикреплять файлы к сообщениям
Вы не можете скачивать файлы