Пророк / Next (Ли Тамахори / Lee Tamahori) [2007, США, Фантастика, Боевик, HDRip] Dub + MVO (СТС) + Original Eng

Ответить на тему
 
Автор
Сообщение

awk05 ®

Пол:

Стаж: 5 лет 11 месяцев

Сообщений: 1352

Репутация: 275 [+] [-]

Откуда: Западная Украина Ривне

Пост 16-Янв-2014 00:39

[Цитировать] 

--Пророк / Next-- Год выпуска: 2007
Страна: США
Жанр: фантастика, боевик, триллер
Продолжительность: 01:36:10
Перевод: Профессиональный (полное дублирование) + многоголосый + английский
Русские субтитры: нет--Режиссер: Ли Тамахори--В ролях: Николас Кейдж, Джулианна Мур, Джессика Бил, Томас Кречманн, Тори Киттлз, Хосе Зунига, Джим Бивер, Jason Butler Harner, Майкл Тракко, Энзо Силенти, Летиция Даниэль, Николас Пэджон, Сергей Трифунович, Чарльз Чун, Патриция Прата, Джон Хьюз, Джек Онг, Элис Ким, Эдит Филдс, Лори Линн Фэйлор, Джесика Барт--Описание: У Криса Джонсона есть секрет, отравляющий его жизнь: он может предсказывать ближайшее будущее. Устав от бесконечного внимания правительства и медицинских центров, пытающихся разгадать природу его удивительных способностей, Крис ложится на дно.
Под вымышленным именем он работает в Лас-Вегасе, где развлекает публику дешевыми фокусами. Но когда группа террористов угрожает Лос-Анджелесу, специальному агенту Калли Феррис придется собрать все силы, чтобы разыскать Криса и убедить его помочь предотвратить катастрофу.--Качество: HDRip
Формат: AVI
Видео кодек: XviD
Аудио кодек: AAC
Видео: MPEG4, XviD, 720x304 (2.35), 23.976 fps, 2 150 Kbps (0.410 bit/pixel)
Аудио 1: AC-3, 48.0 KHz, 6 ch, 448 Kbps, CBR - дубляж
Аудио 2: AC-3, 48.0 KHz, 2 ch, 192 Kbps, CBR - многоголосый
Аудио 3: AC-3, 48.0 KHz, 6 ch, 448 Kbps, CBR - английский--

Интересные факты

Различные варианты течения событий похожи на имитацию серии компьютерных игр Prince of Persia, где есть способность 'Recall' (возможность отмотать время назад и пройти неудавшийся с первого раза участок игры по-новому). Интересно, что и звук, который сопровождает отмотку времени Криса, очень похож на звук из игры, которым сопровождается 'Recall'. Аналогичная идея использовалась в фильме «Беги, Лола, беги».
Кафе, в котором Крис встретил Лиз, использовалось для съемок в начальных и финальных сценах фильма «Криминальное чтиво».
Момент в конце фильма, когда Крис уворачивается от пуль террориста, схватившего его подругу, напоминает сцену на крыше из «Матрицы» с участием Нео.
Несколько эпизодов фильма сняты в горах Сан Бернардино в Калифорнии. Отель «Обрыв», где остановились Крис и его подруга, является на самом деле рестораном, поэтому фасаду придали вид здания. При этом интерьер номера был снят в другом месте. После съемок фасад был разрушен.
Из-за неподходящего рельефа местности сцену с падением автомобиля пришлось снимать в двух разных местах. Машина начала скатываться вниз у ресторана «Обрыв». Все остальные кадры падения были сняты в районе палаточного лагеря «Большое медвежье озеро», который находится в 40 милях от ресторана.
Финальные титры также показывают способность главного героя предвидеть будущее, поэтому они прокручиваются сверху вниз, при этом непривычно читать текст, идущий по строкам снизу вверх.
В начале фильма Крис предвидит его разговор с агентом ФБР. Любопытно, что предвиденный им эпизод длится 2,5 минуты, хотя способности Криса позволяют видеть не далее чем на 2.
Во время разговора в мотеле между Крисом и Лиз по телевизору идёт трансляция фильма «Доктор Стрейнджлав, или Как я перестал бояться и полюбил бомбу», в котором говорится о развитии событий, ведущих к ядерной катастрофе и о попытке предотвратить её. В фильме «Пророк» так же говорится о противодействии ядерной катастрофе.
Режиссер делает ссылку на 2 фильма Стэнли Кубрика: "Доктор Стрейнджлав, или Как я перестал бояться и полюбил бомбу" и "Заводной апельсин". На вторую картину отсылаются в сцене, когда агент Фэррис заставляет Криса предвидеть будущее, главному герою вставили "раскрыватели век", чтобы он смотрел и предсказывал выпуск новостей. Алексу из "Заводного апельсина" такое устройство ставили для просмотра исправляющего фильма, сопровождающегося музыкой "Людвига Вана"
В роли зрительницы на шоу с фокусами, с шеи которой в начале фильма падает ожерелье в бокал ,снималась жена Николаса - Алиса Ким Кейдж, не являющаяся профессиональной актрисой, она официантка.

MediaInfo

Общее
Полное имя : K:\Пророк.avi
Формат : AVI
Формат/Информация : Audio Video Interleave
Профиль формата : OpenDML
Размер файла : 2,19 Гбайт
Продолжительность : 1 ч. 36 м.
Общий поток : 3262 Кбит/сек
Название фильма : Пророк / Next (2007)
Режиссёр : miha2154
Программа кодирования : VirtualDubMod 1.5.10.2 (build 2540/release)
Библиотека кодирования : VirtualDubMod build 2540/release
Правообладатель : специально для BitTorrent трекер RuTracker.org (ex torrents.ru)
Видео
Идентификатор : 0
Формат : MPEG-4 Visual
Профиль формата : Advanced Simple@L5
Параметр BVOP формата : 2
Параметр QPel формата : Нет
Параметр GMC формата : Без точки перехода
Параметр матрицы формата : Default (MPEG)
Идентификатор кодека : XVID
Идентификатор кодека/Подсказка : XviD
Продолжительность : 1 ч. 36 м.
Битрейт : 2150 Кбит/сек
Ширина : 720 пикселей
Высота : 304 пикселя
Соотношение сторон : 2,35:1
Частота кадров : 23,976 кадра/сек
Цветовое пространство : YUV
Субдискретизация насыщенности : 4:2:0
Битовая глубина : 8 бит
Тип развёртки : Прогрессивная
Метод сжатия : С потерями
Бит/(Пиксели*Кадры) : 0.410
Размер потока : 1,44 Гбайт (66%)
Библиотека кодирования : XviD 1.1.0 (UTC 2005-11-22)
Аудио #1
Идентификатор : 1
Формат : AC-3
Формат/Информация : Audio Coding 3
Расширение режима : CM (complete main)
Параметр Endianness формата : Big
Идентификатор кодека : 2000
Продолжительность : 1 ч. 36 м.
Вид битрейта : Постоянный
Битрейт : 448 Кбит/сек
Каналы : 6 каналов
Расположение каналов : Front: L C R, Side: L R, LFE
Частота : 48,0 КГц
Битовая глубина : 16 бит
Метод сжатия : С потерями
Размер потока : 308 Мбайт (14%)
Выравнивание : Разделение по промежуткам
Продолжительность промежутка : 42 мс. (1,00 видеокадр)
Время предзагрузки промежутка : 500 мс.
Заголовок : Профессиональный (полное дублирование)
Аудио #2
Идентификатор : 2
Формат : AC-3
Формат/Информация : Audio Coding 3
Расширение режима : CM (complete main)
Параметр Endianness формата : Big
Идентификатор кодека : 2000
Продолжительность : 1 ч. 36 м.
Вид битрейта : Постоянный
Битрейт : 192 Кбит/сек
Каналы : 2 канала
Расположение каналов : Front: L R
Частота : 48,0 КГц
Битовая глубина : 16 бит
Метод сжатия : С потерями
Размер потока : 132 Мбайт (6%)
Выравнивание : Разделение по промежуткам
Продолжительность промежутка : 42 мс. (1,00 видеокадр)
Время предзагрузки промежутка : 500 мс.
Заголовок : Профессиональный (многоголосый закадровый) СТС
Аудио #3
Идентификатор : 3
Формат : AC-3
Формат/Информация : Audio Coding 3
Расширение режима : CM (complete main)
Параметр Endianness формата : Big
Идентификатор кодека : 2000
Продолжительность : 1 ч. 36 м.
Вид битрейта : Постоянный
Битрейт : 448 Кбит/сек
Каналы : 6 каналов
Расположение каналов : Front: L C R, Side: L R, LFE
Частота : 48,0 КГц
Битовая глубина : 16 бит
Метод сжатия : С потерями
Размер потока : 308 Мбайт (14%)
Выравнивание : Разделение по промежуткам
Продолжительность промежутка : 42 мс. (1,00 видеокадр)
Время предзагрузки промежутка : 500 мс.
Заголовок : Английский

Скриншоты



_________________
[Торрент-статистика]
[Профиль]  [ЛС] 
Показать сообщения:    
Ответить на тему

Текущее время: Сегодня 04:25

Часовой пояс: GMT + 4



Вы не можете начинать темы
Вы не можете отвечать на сообщения
Вы не можете редактировать свои сообщения
Вы не можете удалять свои сообщения
Вы не можете голосовать в опросах
Вы не можете прикреплять файлы к сообщениям
Вы не можете скачивать файлы