Дьявол носит Прада / The Devil Wears Prada (Дэвид Фрэнкел / David Frankel) [2006, США, Комедия, Мелодрама, Драма, DVDRip] AVO Юрий Сербин + original eng

Ответить на тему
 
Автор
Сообщение

anton966 ®

Пол:

Стаж: 6 лет 9 месяцев

Сообщений: 24

Репутация: 0 [+] [-]

Пост 20-Дек-2011 12:04

[Цитировать] 

Дьявол носит Прада / The Devil Wears Prada
Страна: США
Жанр: Комедия/ Мелодрама/ Драма
Год выпуска: 2006
Продолжительность: 01:44:51
Перевод: Авторский (одноголосый) Юрий Сербин + оригинальная английская дорожка
Cубтитры: нет
Режиссер: Дэвид Фрэнкел / David Frankel
В ролях: Энн Хэтэуэй / Anne Hathaway, Мерил Стрип / Meryl Streep, Стэнли Туччи / Stanley Tucci, Эдриэн Гренье / Adrian Grenier, Трэйси Томс / Tracie Thoms, Саймон Бэйкер / Simon Baker
Описание: Мечтающая стать журналисткой провинциальная девушка Андреа по окончании университета получает должность помощницы всесильной Миранды Пристли, деспотичного редактора одного из крупнейших нью-йоркских журналов мод. Андреа всегда мечтала о такой работе, не зная, с каким нервным напряжением это будет связано. Вскоре ей предстоит узнать все ужасы глянцевого мира, а главное — сделать выбор между карьерой и любовью...
Доп. информация: За перевод у Юрия Сербина в рамках спасибо нам:
edsz
anton966
soultourist
pestel
tide
Letyoha3
timyrovec
karabas69
Alexbeer
oleg-k
SavineX
nikson50
Администрация

Качество видео: DVDRip
Формат видео: AVI
Видео: 720x304 (2.37:1), 25 fps, XviD build 64 ~1394 kbps avg, 0.26 bit/pixel
Аудио: 48 kHz, AC3 Dolby Digital, 2/0 (L,R) ch, ~192.00 kbps avg
Аудио 2: 48 kHz, AC3 Dolby Digital, 2/0 (L,R) ch, ~192.00 kbps avg

MediaInfo

Общее
Полное имя : D:\Мои документы\Кинофильмы\Кино\Мои раздачи (незаболваненные)\The Devil Wears Prada (Serbin, Eng) (DVDrip) by A.P..avi
Формат : AVI
Формат/Информация : Audio Video Interleave
Размер файла : 1,31 Гбайт
Продолжительность : 1 ч. 44 м.
Общий поток : 1794 Кбит/сек
Программа кодирования : VirtualDubMod 1.5.10.3 | www.virtualdub-fr.org || (build 2550/release)
Библиотека кодирования : VirtualDubMod build 2550/release
Видео
Идентификатор : 0
Формат : MPEG-4 Visual
Профиль формата : Advanced Simple@L5
Параметр BVOP формата : 2
Параметр QPel формата : Нет
Параметр GMC формата : Без точки перехода
Параметр матрицы формата : Выборочная
Идентификатор кодека : XVID
Идентификатор кодека/Подсказка : XviD
Продолжительность : 1 ч. 44 м.
Битрейт : 1396 Кбит/сек
Ширина : 720 пикселей
Высота : 304 пикселя
Соотношение сторон : 2,35:1
Частота кадров : 25,000 кадров/сек
Цветовое пространство : YUV
Субдискретизация насыщенности : 4:2:0
Битовая глубина : 8 бит
Тип развёртки : Прогрессивная
Метод сжатия : С потерями
Бит/(Пиксели*Кадры) : 0.255
Размер потока : 1,02 Гбайт (78%)
Библиотека кодирования : XviD 64
Аудио #1
Идентификатор : 1
Формат : AC-3
Формат/Информация : Audio Coding 3
Расширение режима : CM (complete main)
Идентификатор кодека : 2000
Продолжительность : 1 ч. 44 м.
Вид битрейта : Постоянный
Битрейт : 192 Кбит/сек
Каналы : 2 канала
Расположение каналов : Front: L R
Частота : 48,0 КГц
Битовая глубина : 16 бит
Метод сжатия : С потерями
Размер потока : 144 Мбайт (11%)
Выравнивание : Разделение по промежуткам
Продолжительность промежутка : 40 мс. (1,00 видеокадр)
Время предзагрузки промежутка : 500 мс.
Аудио #2
Идентификатор : 2
Формат : AC-3
Формат/Информация : Audio Coding 3
Расширение режима : CM (complete main)
Идентификатор кодека : 2000
Продолжительность : 1 ч. 44 м.
Вид битрейта : Постоянный
Битрейт : 192 Кбит/сек
Каналы : 2 канала
Расположение каналов : Front: L R
Частота : 48,0 КГц
Битовая глубина : 16 бит
Метод сжатия : С потерями
Размер потока : 144 Мбайт (11%)
Выравнивание : Разделение по промежуткам
Продолжительность промежутка : 40 мс. (1,00 видеокадр)
Время предзагрузки промежутка : 500 мс.

Скриншоты


[Торрент-статистика]
[Профиль]  [ЛС] 

PolinaZ

Стаж: 6 лет 9 месяцев

Сообщений: 3

Репутация: 0 [+] [-]

Пост 03-Янв-2012 12:04 (спустя 13 дней)

[Цитировать] 

Мерил Стрип просто бесподобна в этом фильме! И сам фильм очень динамичен и прекрасно снят.
[Торрент-статистика]
[Профиль]  [ЛС] 
Показать сообщения:    
Ответить на тему

Текущее время: Сегодня 09:18

Часовой пояс: GMT + 4



Вы не можете начинать темы
Вы не можете отвечать на сообщения
Вы не можете редактировать свои сообщения
Вы не можете удалять свои сообщения
Вы не можете голосовать в опросах
Вы не можете прикреплять файлы к сообщениям
Вы не можете скачивать файлы