Новый парень моей мамы / My Mom's New Boyfriend (Джордж Галло / George Gallo) [2008 г., боевик, триллер, мелодрама, комедия, DVDRip] Dub + original (eng) + Sub (rus + eng) [Полный кадр / Full Frame]

Ответить на тему
 
Автор
Сообщение

awk05 ®

Пол:

Стаж: 6 лет 4 месяца

Сообщений: 1348

Репутация: 275 [+] [-]

Откуда: Западная Украина Ривне

Пост 15-Янв-2014 23:51

[Цитировать] 

--Новый парень моей мамы / My Mom's New Boyfriend--«Кажется, тебе нужна защита»-- Год выпуска: 2008
Страна: США, Германия
Жанр: боевик, триллер, мелодрама, комедия
Продолжительность: 01:33:03
Перевод: Профессиональный (полное дублирование) + Оригинальная звуковая дорожка (отдельно)
Cубтитры: английские, русские (.srt) (отдельно)--Режиссер: Джордж Галло / George Gallo--В ролях: Антонио Бандерас, Мег Райан, Колин Хэнкс, Сэльма Блэр, Тревор Морган, Джон Вальдетеро, Эли Данкер, Том Адамс, Кит Дэвид, Энрико Колантони и др.--Описание: Юный агент ФБР Генри, выполняя очередное задание, покидает родной дом на три года, оставляя в гордом одиночестве свою полную одинокую мамашу Марту. В следующий раз, когда он ее увидит, она уже предстанет перед ним в образе прекрасной разбитной блондинки Марти, которая намерена в последние годы уходящей молодости взять от жизни все.
И в своих стремлениях она, не зная тормозов, заводит романы направо и налево, не гнушаясь ни лысыми итальянскими поварами, ни безусыми юнцами на мотоциклах. От всего происходящего у Генри идет кругом голова, но окончательно почва уйдет у него из-под ног в тот момент, когда Марти повстречает некоего Томми, а Генри на летучке в ФБР прикажут следить за новым ухажером, ввиду широкой известности последнего в Интерполе.--Качество: DVDRip
Формат: AVI
Видео кодек: XviD
Аудио кодек: AC3
Видео: 720x400 (16:9), 25.000 fps, XviD build 64 ~1784 kbps avg, 0.248 bit/pixel
Аудио #1: 48 kHz, AC3 Dolby Digital, 3/2 (L,C,R,l,r) + LFE ch, ~448.00 kbps avg rus
Аудио #2: 48 kHz, AC3 Dolby Digital, 3/2 (L,C,R,l,r) + LFE ch, ~448.00 kbps avg eng (отдельно)-- --

Скриншоты:

MediaInfo:

Код:
Общее
Полное имя : Novyi.paren'.moei.mamy.2008.DVDRip.XviD.AC3.rus.DUB.avi
Формат : AVI
Формат/Информация : Audio Video Interleave
Размер файла : 1,46 Гбайт
Продолжительность : 1 ч. 33 м.
Общий поток : 2241 Кбит/сек
Название фильма : My Mom's New Boyfriend
Режиссёр : George Gallo
Жанр : Comedy
Программа кодирования : VirtualDubMod 1.5.10.3 | www.virtualdub-fr.org || (build 2550/release)
Формат оригинала/Имя : Movie
Видео
Идентификатор : 0
Формат : MPEG-4 Visual
Профиль формата : Advanced Simple@L5
Параметр BVOP формата : 1
Параметр QPel формата : Нет
Параметр GMC формата : Без точки перехода
Параметр матрицы формата : Выборочная
Идентификатор кодека : XVID
Идентификатор кодека/Подсказка : XviD
Продолжительность : 1 ч. 33 м.
Битрейт : 1784 Кбит/сек
Ширина : 720 пикселей
Высота : 400 пикселей
Соотношение сторон : 16:9
Частота кадров : 25,000 кадров/сек
Цветовое пространство : YUV
Субдискретизация насыщенности : 4:2:0
Битовая глубина : 8 бит
Тип развёртки : Прогрессивная
Метод сжатия : С потерями
Бит/(Пиксели*Кадры) : 0.248
Размер потока : 1,16 Гбайт (80%)
Библиотека кодирования : XviD 64
Аудио
Идентификатор : 1
Формат : AC-3
Формат/Информация : Audio Coding 3
Расширение режима : CM (complete main)
Идентификатор кодека : 2000
Продолжительность : 1 ч. 33 м.
Вид битрейта : Постоянный
Битрейт : 448 Кбит/сек
Каналы : 6 каналов
Расположение каналов : Front: L C R, Side: L R, LFE
Частота : 48,0 КГц
Битовая глубина : 16 бит
Метод сжатия : С потерями
Размер потока : 298 Мбайт (20%)
Выравнивание : Разделение по промежуткам
Продолжительность промежутка : 40 мс. (1,00 видеокадр)
Время предзагрузки промежутка : 500 мс.

_________________
[Торрент-статистика]
[Профиль]  [ЛС] 
Показать сообщения:    
Ответить на тему

Текущее время: Сегодня 07:05

Часовой пояс: GMT + 4



Вы не можете начинать темы
Вы не можете отвечать на сообщения
Вы не можете редактировать свои сообщения
Вы не можете удалять свои сообщения
Вы не можете голосовать в опросах
Вы не можете прикреплять файлы к сообщениям
Вы не можете скачивать файлы