Плохой лейтенант / The Bad Lieutenant - Port of Call New Orleans (Вернер Херцог / Werner Herzog) [2009 г., Драма, криминал, HDRip] Mvo (R5)

Ответить на тему
 
Автор
Сообщение

awk05 ®

Пол:

Стаж: 5 лет 8 месяцев

Сообщений: 1352

Репутация: 275 [+] [-]

Откуда: Западная Украина Ривне

Пост 15-Янв-2014 17:02

[Цитировать] 

--Плохой лейтенант / The Bad Lieutenant-- Год выпуска: 2009
Страна: США, Millennium Films
Жанр: Драма, криминал
Продолжительность: 01:57:09
Перевод: Профессиональный (многоголосый, закадровый) Лицензия
Русские субтитры: нет--Режиссер: Вернер Херцог / Werner Herzog--В ролях: Николас Кейдж, Ева Мендес, Вэл Килмер, Файруза Балк, Иксзибит, Шон Хэтоси, Дженнифер Кулидж, Том Бауэр, Вонди Куртис-Холл, Брэд Дуриф--О фильме: Терренс МакДонах — потомственный полицейский, живущий в Новом Орлеане. Его уважает начальство и коллеги. Но у Терренса есть и «другое лицо». Он замешан в воровстве и торговле наркотиками, да и сам является наркоманом. Пристрастия этого «плохого полицейского» — секс и азартные игры. Начальство поручает МакДонаху новое сложное дело — расследовать зверское убийство сенегальских эмигрантов. Сможет ли лейтенант совладать со своей «темной, порочной» стороной и выполнить задание?--Качество: HDRip
Формат: AVI
Видео кодек: XviD
Аудио кодек: AC3
Видео: 720x384 (1.85:1), 25.000 fps, ~1327 kbps avg, 0.192 bit/pixel
Аудио: 48 kHz, AC3 Dolby Digital, 6 ch, ~448.00 kbps avg (rus)-- --

MediaInfo

General
Complete name : E:\Films\Ploxoy.leytinant.2009.avi
Format : AVI
Format/Info : Audio Video Interleave
File size : 1.46 GiB
Duration : 1h 57mn
Overall bit rate : 1 785 Kbps
Director : zim2001
Writing application : VirtualDubMod 1.5.10.2 (build 2540/release)
Copyright : rutracker.org
Video
ID : 0
Format : MPEG-4 Visual
Format profile : Advanced Simple@L5
Format settings, BVOP : 1
Format settings, QPel : No
Format settings, GMC : No warppoints
Format settings, Matrix : Custom
Codec ID : XVID
Codec ID/Hint : XviD
Duration : 1h 57mn
Bit rate : 1 327 Kbps
Width : 720 pixels
Height : 384 pixels
Display aspect ratio : 1.85:1
Frame rate : 25.000 fps
Color space : YUV
Chroma subsampling : 4:2:0
Bit depth : 8 bits
Scan type : Progressive
Compression mode : Lossy
Bits/(Pixel*Frame) : 0.192
Stream size : 1.09 GiB (74%)
Writing library : XviD 1.2.1 (UTC 2008-12-04)
Audio
ID : 1
Format : AC-3
Format/Info : Audio Coding 3
Codec ID : 2000
Duration : 1h 57mn
Bit rate mode : Constant
Bit rate : 448 Kbps
Channel count : 6 channels
Sampling rate : 48.0 KHz
Compression mode : Lossy
Stream size : 375 MiB (25%)
Alignment : Split accross interleaves
Interleave, duration : 40 ms (1.00 video frame)
Interleave, preload duration : 500 ms

_________________
[Торрент-статистика]
[Профиль]  [ЛС] 
Показать сообщения:    
Ответить на тему

Текущее время: Сегодня 02:13

Часовой пояс: GMT + 4



Вы не можете начинать темы
Вы не можете отвечать на сообщения
Вы не можете редактировать свои сообщения
Вы не можете удалять свои сообщения
Вы не можете голосовать в опросах
Вы не можете прикреплять файлы к сообщениям
Вы не можете скачивать файлы