Эон Флакс / Æon Flux (Карин Кусама / Karyn Kusama) [2005, Германия, США, боевик, фантастика, HDRip] DUB

Ответить на тему
 
Автор
Сообщение

awk05 ®

Пол:

Стаж: 5 лет 8 месяцев

Сообщений: 1352

Репутация: 275 [+] [-]

Откуда: Западная Украина Ривне

Пост 15-Янв-2014 15:12

[Цитировать] 

--Эон Флакс / Æon Flux--«Сможешь ли ты узнать будущее в лицо?»-- Страна: Германия, США
Жанр: боевик, фантастика
Год выпуска: 2005
Продолжительность: 01:32:51
Перевод: Профессиональный (дублированный)
Cубтитры: нет--Режиссер: Карин Кусама / Karyn Kusama--В ролях: Шарлиз Терон (Æon Flux,), Мартон Чокаш (Trevor Goodchild), Джонни Ли Миллер (Oren Goodchild), Софи Оконедо (Sithandra), Фрэнсис МакДорманд (Handler), Пит Постлетуэйт (Keeper), Амелия Уорнер (Una Flux), Кэролайн Чикези (Freya), Николай Кински (Claudius), Пэтерсон Джозеф (Giroux), Янгзом Брауен (Inari), Aoibheann O'Hara (Scientist)--Описание: Действие происходит в далеком будущем, когда после глобальной катастрофы погибло практически все население Земли. Оставшиеся люди живут в защищенном городе-государстве Бренна, управляемом советом ученых. Красавица Эон Флакс, лучший агент подпольной повстанческой организации "Моника". Ее возможности, также как мотивы и действия, за пределами объяснимого. Когда Флакс посылают убить президента, она открывает для себя целый мир тайн и секретов...--Качество видео: HDRip
Формат видео: AVI
Видео кодек: XviD
Аудио кодек: AC3
Видео: 688x288 (2.39:1), 23.976 fps, ~1780 kbps avg, 0.38 bit/pixel
Аудио: 48 kHz, AC3 Dolby Digital, 3/2 (L,C,R,l,r) + LFE ch, ~448.00 kbps avg-- --

MediaInfo

General
Complete name : C:\Documents and Settings\Администратор\Рабочий стол\Æon Flux.HDRip.R.G.Torrents.Ru_Drek.avi
Format : AVI
Format/Info : Audio Video Interleave
File size : 1.45 GiB
Duration : 1h 32mn
Overall bit rate : 2 238 Kbps
Writing application : VirtualDubModRus 1.5.10.2 (build 2542/release)
Writing library : VirtualDubMod build 2542/release
Video
ID : 0
Format : MPEG-4 Visual
Format profile : Advanced Simple@L5
Format settings, BVOP : 1
Format settings, QPel : No
Format settings, GMC : No warppoints
Format settings, Matrix : Custom
Codec ID : XVID
Codec ID/Hint : XviD
Duration : 1h 32mn
Bit rate : 1 781 Kbps
Width : 688 pixels
Height : 288 pixels
Display aspect ratio : 2.40:1
Frame rate : 23.976 fps
Color space : YUV
Chroma subsampling : 4:2:0
Bit depth : 8 bits
Scan type : Progressive
Compression mode : Lossy
Bits/(Pixel*Frame) : 0.375
Stream size : 1.16 GiB (80%)
Writing library : XviD 62
Audio
ID : 1
Format : AC-3
Format/Info : Audio Coding 3
Mode extension : CM (complete main)
Codec ID : 2000
Duration : 1h 32mn
Bit rate mode : Constant
Bit rate : 448 Kbps
Channel(s) : 6 channels
Channel positions : Front: L C R, Side: L R, LFE
Sampling rate : 48.0 KHz
Bit depth : 16 bits
Compression mode : Lossy
Stream size : 298 MiB (20%)
Alignment : Split accross interleaves
Interleave, duration : 42 ms (1.00 video frame)
Interleave, preload duration : 500 ms

Скриншоты


_________________
[Торрент-статистика]
[Профиль]  [ЛС] 
Показать сообщения:    
Ответить на тему

Текущее время: Сегодня 21:31

Часовой пояс: GMT + 4



Вы не можете начинать темы
Вы не можете отвечать на сообщения
Вы не можете редактировать свои сообщения
Вы не можете удалять свои сообщения
Вы не можете голосовать в опросах
Вы не можете прикреплять файлы к сообщениям
Вы не можете скачивать файлы