Наёмные убийцы / Contract Killers (Джастин Б. Родс) [2009 г.,боевик,HDRip]

Ответить на тему
 
Автор
Сообщение

ilia ®

Пол:

Стаж: 6 лет 5 месяцев

Сообщений: 99

Репутация: 1 [+] [-]

Пост 20-Дек-2011 10:43

[Цитировать] 

Наёмные убийцы / Contract Killers
Год выпуска: 2009
Страна: США
Жанр: боевик
Выпущено: США, Galt Alliance Films
Продолжительность: 01:26:23
Озвучивание: Профессиональное (многоголосое)
Режиссер: Джастин Б. Родс
--
В ролях: Фрида Шоу, Ник Манкузо, Ретт Джиллз, Кристиан Уиллис, Дж. Энтони Джозеф, Вольф Музер, Ли Шерман, Пол Крэм, Джастин Смит
--
Описание: «Наемный Убийца», дебют режиссера Джастина Родоса, был частично снят в Тринидаде. Фильм, в котором играет молодая шведская актриса Фрида Фаррелл в роли Джейн, переносит зрителей в мир, в котором молодая девушка бежит от крупной компании, где она когда-то работала, на красивый и процветающий карибский остров. Девушка знает секреты компании, и является свидетелем ее причастности к мошенничеству. В игру вступает наемный убийца Иосиф, житель острова и наемник компании, чтобы устранить Джейн.
-
Формат: AVI
Качество: HDRip
Видео: 1870 kb/s, 720x400
Аудио: AC3, 384 kb/s (6 ch)
Размер: 1.37 GB
-

Рейтинг R - Детям до 17 лет обязательно присутствие родителей

MFO

Формат : AVI
Формат/Информация : Audio Video Interleave
Размер файла : 1,37 Гбайт
Продолжительность : 1 ч. 26 м.
Общий поток : 2264 Кбит/сек
Программа кодирования : VirtualDubMod 1.5.10.2 (build 2540/release)
Библиотека кодирования : VirtualDubMod build 2540/release
Видео
Идентификатор : 0
Формат : MPEG-4 Visual
Профиль формата : Advanced Simple@L5
Параметр BVOP формата : 1
Параметр QPel формата : Нет
Параметр GMC формата : Без точки перехода
Параметр матрицы формата : Default (H.263)
Идентификатор кодека : XVID
Идентификатор кодека/Подсказка : XviD
Продолжительность : 1 ч. 26 м.
Битрейт : 1871 Кбит/сек
Ширина : 720 пикселей
Высота : 400 пикселей
Соотношение сторон : 16:9
Частота кадров : 23,976 кадра/сек
Цветовое пространство : YUV
Субдискретизация насыщенности : 4:2:0
Битовая глубина : 8 бит
Тип развёртки : Прогрессивная
Метод сжатия : С потерями
Бит/(Пиксели*Кадры) : 0.271
Размер потока : 1,13 Гбайт (83%)
Библиотека кодирования : XviD 1.2.1 (UTC 2008-12-04)
Аудио
Идентификатор : 1
Формат : AC-3
Формат/Информация : Audio Coding 3
Расширение режима : CM (complete main)
Идентификатор кодека : 2000
Продолжительность : 1 ч. 26 м.
Вид битрейта : Постоянный
Битрейт : 384 Кбит/сек
Каналы : 6 каналов
Расположение каналов : Front: L C R, Side: L R, LFE
Частота : 48,0 КГц
Битовая глубина : 16 бит
Метод сжатия : С потерями
Задержка видео : 212 мс.
Размер потока : 237 Мбайт (17%)
Выравнивание : Разделение по промежуткам
Продолжительность промежутка : 42 мс. (1,00 видеокадр)
Время предзагрузки промежутка : 500 мс.

Скриншоты

[Торрент-статистика]
[Профиль]  [ЛС] 
Показать сообщения:    
Ответить на тему

Текущее время: Сегодня 06:58

Часовой пояс: GMT + 4



Вы не можете начинать темы
Вы не можете отвечать на сообщения
Вы не можете редактировать свои сообщения
Вы не можете удалять свои сообщения
Вы не можете голосовать в опросах
Вы не можете прикреплять файлы к сообщениям
Вы не можете скачивать файлы