Вавилон Н.Э. / Babylon A.D. (Матье Кассовиц / Mathieu Kassovitz) [2008 г., боевик, приключения, триллер, фантастика, BDRip] [Расширенная версия / Extended Cut]

Ответить на тему
 
Автор
Сообщение

awk05 ®

Пол:

Стаж: 6 лет 1 месяц

Сообщений: 1351

Репутация: 275 [+] [-]

Откуда: Западная Украина Ривне

Пост 07-Янв-2014 20:08

[Цитировать] 

Вавилон Н.Э. / Babylon A.D. [Расширенная версия / Extended Cut]- Год выпуска: 2008
Страна: США, Франция, Великобритания
Выпущено: 20th Century Fox, Canal+
Жанр: боевик, приключения, триллер, фантастика
Продолжительность: 01:40:58
Перевод: Профессиональный (полное дублирование)
Cубтитры: нет--Режиссер: Матье Кассовиц / Mathieu Kassovitz--В ролях: Вин Дизель, Мишель Йео, Мелани Тьерри, Жерар Депардье, Шарлотта Рэмплинг, Марк Стронг, Ламбер Вильсон, Жером Ле Баннер, Джоэль Кирби, Сулейман Дико--Описание: После войны, в недалеком будущем, мир превратился в анархическое царство, где царит хаос. Чтобы избежать смерти и нищеты беженцы бегут из Европы и Азии. И только один человек не обратился в бегство. Туроп (Вин Дизель), наемник с одним простым правилом: не задавай вопросов. Его новое задание - сопровождать двух женщин из России из монастыря в Центральной Азии в Нью-Йорк. Когда становится очевидным, что с этими женщинами не все так просто, как кажется на первый взгляд, и она заражена синтетическим вирусом, который может уничтожить все человечество... Туроп начинает задавать вопросы, нарушая условия сделки. Потребуются все его профессиональные навыки, чтобы провести "багаж" через военные зоны, бойцовские клубы, гангстерские войны и банды религиозных фанатиков.
В основу фильма положена книга «Дети Вавилона» бывшего панк-рок музыканта Мориса Дантека.-- --Качество: BDRip
Формат: AVI
Видео кодек: XviD, build 50 codec
Аудио кодек: AC3
Видео: 720 x 304, (2.35:1), 23.976 fps; ~1594 kbps; 0.304 bit/pixel
Аудио: 6 channels, Dolby Digital, 3/2 (L,C,R,l,r) + LFE ch, 48 kHz, ~384.00 kbps avg-- --

MediaInfo

General
Complete name : E:\Films\Vavilon.N.E.PROPER.2008.BDRip.RUS.XviD.AC3.MegaShara.com.avi
Format : AVI
Format/Info : Audio Video Interleave
File size : 1.46 GiB
Duration : 1h 40mn
Overall bit rate : 2 069 Kbps
Movie name : Вавилон Н.Э. / Babylon A.D.
Director : Dark_a
Genre : Фантастика, боевик, триллер
Writing application : VirtualDubMod 1.5.10.2 (build 2540/release)
Original source form/Name : Movie
Copyright : MegaShara (http://www.megashara.com/)
Video
ID : 0
Format : MPEG-4 Visual
Format profile : Advanced Simple@L5
Format settings, BVOP : 2
Format settings, QPel : No
Format settings, GMC : No warppoints
Format settings, Matrix : Default (MPEG)
Codec ID : XVID
Codec ID/Hint : XviD
Duration : 1h 40mn
Bit rate : 1 594 Kbps
Width : 720 pixels
Height : 304 pixels
Display aspect ratio : 2.35:1
Frame rate : 23.976 fps
Color space : YUV
Chroma subsampling : 4:2:0
Bit depth : 8 bits
Scan type : Progressive
Compression mode : Lossy
Bits/(Pixel*Frame) : 0.304
Stream size : 1.12 GiB (77%)
Writing library : XviD 1.2.1 (UTC 2008-12-04)
Audio
ID : 1
Format : AC-3
Format/Info : Audio Coding 3
Mode extension : CM (complete main)
Format settings, Endianness : Big
Codec ID : 2000
Duration : 1h 40mn
Bit rate mode : Constant
Bit rate : 384 Kbps
Channel count : 6 channels
Channel positions : Front: L C R, Side: L R, LFE
Sampling rate : 48.0 KHz
Bit depth : 16 bits
Compression mode : Lossy
Stream size : 277 MiB (19%)
Alignment : Split accross interleaves

_________________
[Торрент-статистика]
[Профиль]  [ЛС] 
Показать сообщения:    
Ответить на тему

Текущее время: Сегодня 23:18

Часовой пояс: GMT + 4



Вы не можете начинать темы
Вы не можете отвечать на сообщения
Вы не можете редактировать свои сообщения
Вы не можете удалять свои сообщения
Вы не можете голосовать в опросах
Вы не можете прикреплять файлы к сообщениям
Вы не можете скачивать файлы