Звёздные Врата: Временной Континуум / Stargate: Continuum (Мартин Вуд / Martin Wood) [2008 г., фантастика, боевик, фэнтези, BDRip]

Ответить на тему
 
Автор
Сообщение

awk05 ®

Пол:

Стаж: 5 лет 10 месяцев

Сообщений: 1352

Репутация: 275 [+] [-]

Откуда: Западная Украина Ривне

Пост 23-Дек-2013 18:15

[Цитировать] 

--Звёздные Врата: Временной Континуум / Stargate: Continuum-- Год выпуска: 2008
Страна: США, Канада
Жанр: фантастика, боевик, фэнтези
Продолжительность: 01:38
Перевод: Профессиональный (многоголосый, закадровый)
Русские субтитры: нет--Режиссер: Мартин Вуд / Martin Wood--В ролях: Аманда Таппинг /Amanda Tapping/, Бэн Браудер /Ben Browder/, Майкл Шенкс /Michael Shanks/, Кристофер Джадж /Christopher Judge/, Клаудия Блэк /Claudia Black/, Дон С. Дэвис /Don S. Davis/, Ричард Дин Андерсон /Richard Dean Anderson/, Бо Бриджес /Beau Bridges/, Гэри Джонс /Gary Jones/--Описание: Пока команда SG-1 пытается уничтожить Боала, последнего лорда гуаулдов, Тил’к и Вала загадочным образом исчезают. Картер, Дэниел и Митчелл понимают, что был нарушен временной континуум и программа по исследованию звездных врат стерлась из истории. Герои пробуют донести свою непростую мысль до властей, но на орбиту прибывают крейсеры гоаулдов во главе с Ба’алом, королевой Катеш и премьер-министром Тил’ком. Команде SG-1 нужно найти звездные врата и восстановить правильный ход вещей прежде, чем мир будет порабощен захватчиками.--Качество: BDRip
Формат: AVI
Видео кодек: XviD
Аудио кодек: AC3
Видео: 720x400 (1.80:1), 23.976 fps, XviD build 50 ~1 640 kbps avg, 0.237 bit/pixel
Аудио: 48 kHz, AC3 Dolby Digital, 3/2 (L,C,R,l,r) + LFE ch, ~384.00 kbps avg-- --

MediaInfo

General
Complete name : E:\Сериалы новые\Zvezdnye.Vrata.Vremennoi.Kontinuum.2008.RUS.BDRip.XviD.AC3.-FRiENDS-Club.avi
Format : AVI
Format/Info : Audio Video Interleave
File size : 1.46 GiB
Duration : 1h 38mn
Overall bit rate : 2 116 Kbps
Movie name : Звёздные Врата: Временной Континуум / Stargate: Continuum (2008) BDRip
Director : HELLRAiSER (BDRip 1080)
Writing application : VirtualDubMod 1.5.10.2 (build 2542/release)
Copyright : www.friends-club.info
Comment : 11.02.2009
Video
ID : 0
Format : MPEG-4 Visual
Format profile : Advanced Simple@L5
Format settings, BVOP : 1
Format settings, QPel : No
Format settings, GMC : No warppoints
Format settings, Matrix : Default (MPEG)
Codec ID : XVID
Codec ID/Hint : XviD
Duration : 1h 38mn
Bit rate : 1 640 Kbps
Width : 720 pixels
Height : 400 pixels
Display aspect ratio : 16:9
Original display aspect ratio : 16:9
Frame rate : 23.976 fps
Color space : YUV
Chroma subsampling : 4:2:0
Bit depth : 8 bits
Scan type : Progressive
Compression mode : Lossy
Bits/(Pixel*Frame) : 0.237
Stream size : 1.13 GiB (77%)
Writing library : XviD 1.2.1 (UTC 2008-12-04)
Audio
ID : 1
Format : AC-3
Format/Info : Audio Coding 3
Mode extension : CM (complete main)
Format settings, Endianness : Big
Codec ID : 2000
Duration : 1h 38mn
Bit rate mode : Constant
Bit rate : 384 Kbps
Channel count : 6 channels
Channel positions : Front: L C R, Side: L R, LFE
Sampling rate : 48.0 KHz
Bit depth : 16 bits
Compression mode : Lossy
Stream size : 271 MiB (18%)
Alignment : Split accross interleaves

Скриншоты




_________________
[Торрент-статистика]
[Профиль]  [ЛС] 

o000oo90

Стаж: 2 года 5 месяцев

Сообщений: 2

Репутация: 0 [+] [-]

Пост 16-Фев-2016 05:19 (спустя 2 года 1 месяц)

[Цитировать] 

озвучка тв3 или Lostfilm?
[Торрент-статистика]
[Профиль]  [ЛС] 
Показать сообщения:    
Ответить на тему

Текущее время: Сегодня 06:50

Часовой пояс: GMT + 4



Вы не можете начинать темы
Вы не можете отвечать на сообщения
Вы не можете редактировать свои сообщения
Вы не можете удалять свои сообщения
Вы не можете голосовать в опросах
Вы не можете прикреплять файлы к сообщениям
Вы не можете скачивать файлы