Звёздные Врата. Ковчег Истины / Stargate. The Ark of Truth (Robert C. Cooper) [2008 г., Фантастика, BDRip-AVC] (ТВ3)

Ответить на тему
 
Автор
Сообщение

awk05 ®

Пол:

Стаж: 5 лет 8 месяцев

Сообщений: 1352

Репутация: 275 [+] [-]

Откуда: Западная Украина Ривне

Пост 23-Дек-2013 17:54

[Цитировать] 

--Звёздные Врата. Ковчег Истины / Stargate. The Ark of Truth-- Год выпуска: 2008
Страна: США
Жанр: Фантастика
Продолжительность: 01:41:57
Перевод: Профессиональный (многоголосый, закадровый) (ТВ3)--Режиссер: Роберт С. Купер/Robert C. Cooper--В ролях: Бэн Браудер — подполковник Кэмерон Митчелл, Майкл Шэнкс — доктор Дэниэл Джэксон, Аманда Таппинг — полковник Саманта Картер, Кристофер Джадж — Тил'к, Клаудия Блэк — Вала Мал Доран (Кетеш), Боу Бриджес — генерал-майор Хэнк Лэндри, Тим Гуини — Томин, Грег Андерсен — Жрец, Карри Грэхем — Джеймс Мерек, Морена Баккарин — Адриа, Сара Стрендж — Морган ле Фэй, Джулиан Сэндс — Доси--Описание: Фильм, основанный на популярном телевизионном сериале «Звёздные врата. SG-1». «Ковчег правды» поставит точку в основной сюжетной линии сериала, завершив эпопею с Орай. Команда SG-1 начинает поиски артефакта, способного нанести поражение армии противника. Вскоре герои узнают о существовании суперврат, через которые Орай хотят отправить свою армаду на Землю. Артефакт находится в родной галактике Орай, и SG-1 отправляется в путь, чтобы предотвратить атаку. Но у комитета по ассигнованиям есть собственные планы, и SG-1 оказываются в далекой галактике меж двух могущественных врагов.--Качество: BDRip
Формат: MKV
Видео кодек: AVC
Аудио кодек: AC3
Видео: V_MPEG4/ISO/AVC 800x450,16:9,1 617 Kbps, 25.000 fps, Bits/(Pixel*Frame): 0.180
Аудио: #1: 48 kHz, AC3 Dolby Digital, 2/0 (L,R) ch, ~192.00 kbps avg (Rus)
Аудио: #2: 48 kHz, AAC, 3/2 (L,C,R,l,r) + LFE ch, ~448.00 kbps avg (Eng)--

MediaInfo

General
Unique ID : 227861471004577979649212516315769578945 (0xAB6C85E481B0C47B8FC295F591CFA5C1)
Complete name : E:\Сериалы новые\Stargate.The.Ark.Of.Truth.BDRip.H264-N-(Rus.Eng).mkv
Format : Matroska
Format version : Version 1
File size : 1.50 GiB
Duration : 1h 37mn
Overall bit rate : 2 197 Kbps
Encoded date : UTC 2008-12-07 16:59:54
Writing application : mkvmerge v2.0.2 ('You're My Flame') built on Feb 21 2007 23:40:55
Writing library : libebml v0.7.7 + libmatroska v0.8.1
Video
ID : 1
Format : AVC
Format/Info : Advanced Video Codec
Format profile : Main@L2.1
Format settings, CABAC : Yes
Format settings, ReFrames : 2 frames
Codec ID : V_MPEG4/ISO/AVC
Duration : 1h 37mn
Bit rate : 1 617 Kbps
Width : 800 pixels
Height : 450 pixels
Display aspect ratio : 16:9
Frame rate mode : Constant
Frame rate : 25.000 fps
Color space : YUV
Chroma subsampling : 4:2:0
Bit depth : 8 bits
Scan type : Progressive
Bits/(Pixel*Frame) : 0.180
Stream size : 1.08 GiB (72%)
Title : Stargate.The.Ark.Of.Truth.BDRip.H264-N-(Rus.Eng)
Writing library : x264 core 59 r839 27c3071
Encoding settings : cabac=1 / ref=2 / deblock=1:0:0 / analyse=0x1:0x131 / me=umh / subme=6 / brdo=1 / mixed_ref=1 / me_range=16 / chroma_me=1 / trellis=1 / 8x8dct=0 / cqm=0 / deadzone=21,11 / chroma_qp_offset=0 / threads=3 / nr=0 / decimate=1 / mbaff=0 / bframes=3 / b_pyramid=0 / b_adapt=1 / b_bias=0 / direct=3 / wpredb=1 / bime=1 / keyint=250 / keyint_min=25 / scenecut=40(pre) / rc=2pass / bitrate=1617 / ratetol=1.0 / rceq='blurCplx^(1-qComp)' / qcomp=1.00 / qpmin=10 / qpmax=51 / qpstep=4 / cplxblur=20.0 / qblur=0.5 / ip_ratio=1.40 / pb_ratio=1.30 / aq=2:1.00
Default : Yes
Forced : No
Audio #1
ID : 2
Format : AC-3
Format/Info : Audio Coding 3
Mode extension : CM (complete main)
Format settings, Endianness : Big
Codec ID : A_AC3
Duration : 1h 37mn
Bit rate mode : Constant
Bit rate : 192 Kbps
Channel count : 2 channels
Channel positions : Front: L R
Sampling rate : 48.0 KHz
Bit depth : 16 bits
Compression mode : Lossy
Stream size : 134 MiB (9%)
Title : Rus
Language : Russian
Default : Yes
Forced : No
Audio #2
ID : 3
Format : AC-3
Format/Info : Audio Coding 3
Mode extension : CM (complete main)
Format settings, Endianness : Big
Codec ID : A_AC3
Duration : 1h 37mn
Bit rate mode : Constant
Bit rate : 384 Kbps
Channel count : 6 channels
Channel positions : Front: L C R, Side: L R, LFE
Sampling rate : 48.0 KHz
Bit depth : 16 bits
Compression mode : Lossy
Stream size : 268 MiB (17%)
Title : Eng
Language : English
Default : No
Forced : No

_________________
[Торрент-статистика]
[Профиль]  [ЛС] 

ArtZak

Пол:

Стаж: 6 лет 3 месяца

Сообщений: 2996

Репутация: 1363 [+] [-]

Откуда: Россия

Пост 23-Дек-2013 22:22 (спустя 4 часа)

[Цитировать] 

awk05, слегка сранновато разрешение для рипа: 800х450... что думаете по этому поводу? Пару раз в своей жизни такие видел, включая этот ab
[Торрент-статистика]
[Профиль]  [ЛС] 
Показать сообщения:    
Ответить на тему

Текущее время: Сегодня 08:48

Часовой пояс: GMT + 4



Вы не можете начинать темы
Вы не можете отвечать на сообщения
Вы не можете редактировать свои сообщения
Вы не можете удалять свои сообщения
Вы не можете голосовать в опросах
Вы не можете прикреплять файлы к сообщениям
Вы не можете скачивать файлы