Затяжной прыжок / Cutaway (Гай Манос) [2000, Боевик, DVDRip]

Ответить на тему
 
Автор
Сообщение

diim ®

Пол:

Стаж: 3 года 7 месяцев

Сообщений: 1033

Репутация: 112 [+] [-]

Пост 01-Дек-2011 19:35

[Цитировать] 

Затяжной прыжок / Cutaway Год выпуска: 2000
Страна: США
Слоган: «Xtreme times call for Xtreme measures.»
Жанр: Боевик
Продолжительность: 01:44:31
Перевод: Профессиональный (многоголосый закадровый) + Оригинальная звуковая дорожка
Субтитры: Нет-Режиссёр: Гай Манос
Сценарист: Грег Манос, Гай Манос, Тед Уильямс
Продюсер: Адам М. Стоун, Дэвид Глассер, Сэм Блонт
Оператор: Норман Кент, Джерри Лайвли
Композитор: Ларри Браун
В ролях: Том Беренджер, Стивен Болдуин, Деннис Родмэн, Максин Банс, Томас Иэн Николас, Рой Агелофф, Филлип Глассер, Маркос Ферраэз, Адам Уайли, Каспер Ван Дьен, Рон Силвер-Описание: Долгие годы агент под прикрытием, Виктор Карузо, менял свои имена и легенды, разоблачая различных наркодельцов. Но однажды операция по перехвату контрабанды наркотоков в аэропорту Майами заканчивается полным провалом, и его отстраняют от ведения дела.
Фанатичный Карузо решает провести свое расследование. Вскоре он узнает о загадочном обществе парашютистов, денно и нощно совершающих перелеты из Флориды, чтобы отрабатывать свои прыжки.
Его подозрения в содействии парашютистов переправке наркотиков полностью подтверждаются, и он внедряется в их общество. Их странная, безумная жизнь над землей ослепляет разум и распаляет чувства.
Яркая любовь и всепоглощающая страсть затягивают за собой, заставляя забыть о прошлом. Всегда верный своему долгу, Карузо оказывается перед самым трудным выбором в его жизни.-Рейтинг MPAA: Рейтинг R (Подростки до 17 лет допускаются на фильм только в сопровождении одного из родителей)
Мировая премьера: 3 октября 2000
Бюджет: $9 000 000-Качество: DVDRip
Формат: MKV
Видео кодек: XviD
Аудио кодек: AC3
Видео: 1736 Kbps, 23.976 fps, 720*416 (16:9)
Аудио #1: 48000 Hz, 2 канала, 192kbps, 48.0 KHz [Профессиональный (многоголосый закадровый)]
Аудио #2: 48000 Hz, 2 канала, 192kbps, 48.0 KHz [Оригинальная звуковая дорожка]
Субтитры: Нет-

MediaInfo

General
Unique ID : 193209079076511699598905112271077387871 (0x915AB71046834F6D88CCA7AD88E22E5F)
Complete name : Zatyajnoy Prijok.2000.mkv
Format : Matroska
File size : 1.54 GiB
Duration : 1h 44mn
Overall bit rate : 2 107 Kbps
Encoded date : UTC 2009-12-09 19:32:47
Writing application : mkvmerge v2.9.8 ('C'est le bon') built on Aug 13 2009 12:49:06
Writing library : libebml v0.7.7 + libmatroska v0.8.1
Video
ID : 1
Format : MPEG-4 Visual
Format profile : Simple@L0
Format settings, BVOP : No
Format settings, QPel : No
Format settings, GMC : No warppoints
Format settings, Matrix : Default (H.263)
Codec ID : XVID
Codec ID/Hint : XviD
Duration : 1h 44mn
Bit rate : 1 681 Kbps
Width : 720 pixels
Height : 416 pixels
Display aspect ratio : 16:9
Frame rate : 23.976 fps
Color space : YUV
Chroma subsampling : 4:2:0
Bit depth : 8 bits
Scan type : Progressive
Compression mode : Lossy
Bits/(Pixel*Frame) : 0.234
Stream size : 1.23 GiB (80%)
Writing library : XviD 1.2.1 (UTC 2008-12-04)
Audio #1
ID : 2
Format : AC-3
Format/Info : Audio Coding 3
Mode extension : CM (complete main)
Codec ID : A_AC3
Duration : 1h 44mn
Bit rate mode : Constant
Bit rate : 192 Kbps
Channel(s) : 2 channels
Channel positions : Front: L R
Sampling rate : 48.0 KHz
Bit depth : 16 bits
Compression mode : Lossy
Stream size : 144 MiB (9%)
Title : Multivoice
Language : Russian
Audio #2
ID : 3
Format : AC-3
Format/Info : Audio Coding 3
Mode extension : CM (complete main)
Codec ID : A_AC3
Duration : 1h 44mn
Bit rate mode : Constant
Bit rate : 192 Kbps
Channel(s) : 2 channels
Channel positions : Front: L R
Sampling rate : 48.0 KHz
Bit depth : 16 bits
Compression mode : Lossy
Stream size : 144 MiB (9%)
Title : Original
Language : English

Скриншоты











[Торрент-статистика]
[Профиль]  [ЛС] 
Показать сообщения:    
Ответить на тему

Текущее время: Сегодня 07:13

Часовой пояс: GMT + 4



Вы не можете начинать темы
Вы не можете отвечать на сообщения
Вы не можете редактировать свои сообщения
Вы не можете удалять свои сообщения
Вы не можете голосовать в опросах
Вы не можете прикреплять файлы к сообщениям
Вы не можете скачивать файлы