Тайна ордена / The Order (Шелдон Леттич) [2001, Боевик, комедия, приключения, HQRip-AVC]

Ответить на тему
 
Автор
Сообщение

diim ®

Пол:

Стаж: 3 года 7 месяцев

Сообщений: 1033

Репутация: 112 [+] [-]

Пост 28-Окт-2012 11:08

[Цитировать] 

Тайна орденаThe Order Год выпуска: 2001
Страна: Аруба, США
Слоган: «Unleash The Power.»
Жанр: Боевик, комедия, приключения
Продолжительность: 01:29:22-Режиссёр: Шелдон Леттич
В ролях: Жан-Клод Ван Дамм, Чарлтон Хестон, София Милош, Брайан Томпсон, Бен Кросс, Вернон Добчефф, Сассон Габаи, Алон Абутбул, Джои Томаска, Питер Малота, Абдель Кисси-Описание: Неутомимый искатель приключений Руди Кафмайер, промышляющий добычей уникальных произведений искусства и редкостных диковин для богатых коллекционеров, отправляется в Израиль на поиски своего пропавшего отца, составлявшего летопись древней таинственной секты «Орден».
В Иерусалиме за авантюристом со скандальной репутацией сразу начинают охотиться наемные убийцы и полиция во главе с отважной Далией Барр, которая не раз спасет Руди жизнь во время головокружительных погонь и бешеных перестрелок на узких улочках древнего города, прежде чем ему удастся разоблачить глобальный заговор безумного главаря «Ордена» стремящегося начать новую Священную войну и установить на Земле власть крови и террора.--Качество: HQRip-AVC
Формат: MKV
Видео кодек: H264 (AVC)
Аудио кодек: AC3 (Dolby Digital)
Видео: 1 024x554, 23.976 fps, 1 938 Kbps
Аудио #1: 48.0 KHz, 6 ch, 384 Kbps [Профессиональный (многоголосый закадровый)]-

MI

General
Unique ID : 188346206333411572679203722354560469763 (0x8DB228ED2B7E53469AA7BF841B1E0B03)
Complete name : Тайна ордена.2001.mkv
Format : Matroska
Format version : Version 2
File size : 1.45 GiB
Duration : 1h 29mn
Overall bit rate : 2 322 Kbps
Movie name : Тайна ордена / The Order (2001) BDRip-AVC
Encoded date : UTC 2012-10-27 13:37:33
Writing application : mkvmerge v5.7.0 ('The Whirlwind') built on Jul 8 2012 20:08:51
Writing library : libebml v1.2.3 + libmatroska v1.3.0
Video
ID : 1
Format : AVC
Format/Info : Advanced Video Codec
Format profile : High@L4.1
Format settings, CABAC : Yes
Format settings, ReFrames : 12 frames
Codec ID : V_MPEG4/ISO/AVC
Duration : 1h 29mn
Bit rate : 1 938 Kbps
Width : 1 024 pixels
Height : 554 pixels
Display aspect ratio : 1.85:1
Frame rate : 23.976 fps
Color space : YUV
Chroma subsampling : 4:2:0
Bit depth : 8 bits
Scan type : Progressive
Bits/(Pixel*Frame) : 0.142
Stream size : 1.18 GiB (81%)
Writing library : x264 core 128 r2216 198a7ea
Encoding settings : cabac=1 / ref=12 / deblock=1:-2:-1 / analyse=0x3:0x113 / me=umh / subme=10 / psy=1 / psy_rd=1.09:0.08 / mixed_ref=1 / me_range=40 / chroma_me=1 / trellis=2 / 8x8dct=1 / cqm=0 / deadzone=21,11 / fast_pskip=0 / chroma_qp_offset=-3 / threads=16 / lookahead_threads=2 / sliced_threads=0 / nr=0 / decimate=1 / interlaced=0 / bluray_compat=0 / constrained_intra=0 / bframes=12 / b_pyramid=2 / b_adapt=2 / b_bias=0 / direct=3 / weightb=1 / open_gop=0 / weightp=2 / keyint=240 / keyint_min=22 / scenecut=40 / intra_refresh=0 / rc_lookahead=40 / rc=2pass / mbtree=1 / bitrate=1938 / ratetol=1.0 / qcomp=0.60 / qpmin=0 / qpmax=69 / qpstep=4 / cplxblur=20.0 / qblur=0.5 / ip_ratio=1.40 / aq=2:1.00
Default : Yes
Forced : No
Audio
ID : 2
Format : AC-3
Format/Info : Audio Coding 3
Mode extension : CM (complete main)
Format settings, Endianness : Big
Codec ID : A_AC3
Duration : 1h 29mn
Bit rate mode : Constant
Bit rate : 384 Kbps
Channel(s) : 6 channels
Channel positions : Front: L C R, Side: L R, LFE
Sampling rate : 48.0 KHz
Bit depth : 16 bits
Compression mode : Lossy
Stream size : 245 MiB (17%)
Title : Многоголосый закадровый (профессиональный)
Language : Russian
Default : Yes
Forced : No

Скриншоты

[Торрент-статистика]
[Профиль]  [ЛС] 
Показать сообщения:    
Ответить на тему

Текущее время: Сегодня 07:00

Часовой пояс: GMT + 4



Вы не можете начинать темы
Вы не можете отвечать на сообщения
Вы не можете редактировать свои сообщения
Вы не можете удалять свои сообщения
Вы не можете голосовать в опросах
Вы не можете прикреплять файлы к сообщениям
Вы не можете скачивать файлы