Поймай меня, если сможешь / Catch Me If You Can (Стивен Спилберг / Steven Spielberg) [2002, драма, криминал, HDTVRip-AVC] Dub

Ответить на тему
 
Автор
Сообщение

simbais ®

Пол:

Стаж: 6 лет

Сообщений: 647

Репутация: 184 [+] [-]

Откуда: Санкт-Петербург

Пост 08-Май-2012 02:34

[Цитировать] 

Поймай меня, если сможешь / Catch Me If You Can- Страна: США, DreamWorks SKG
Жанр: драма, криминал
Год выпуска: 2002
Продолжительность: 02:14:57-Перевод: профессиональный (дублированный)
Cубтитры: нет
Оригинальная аудиодорожка: нет-Режиссер: Стивен Спилберг / Steven Spielberg
В ролях: Леонардо ДиКаприо, Том Хэнкс, Кристофер Уокен, Мартин Шин, Натали Бэй, Эми Адамс, Джеймс Бролин, Брайан Хау, Фрэнк Джон Хьюз, Стив Истин-Описание: Фрэнк Эбегнейл успел поработать врачом, адвокатом и пилотом на пассажирской авиалинии — и все это до достижения полного совершеннолетия в 21 год. Мастер в обмане и жульничестве, он также обладал искусством подделки документов, что в конечном счете принесло ему миллионы долларов, которые он получил по фальшивым чекам.
Агент ФБР Карл Хэнрэтти отдал бы все, чтобы схватить Фрэнка и привлечь к ответственности за свои деяния, но Фрэнк всегда опережает его на шаг, заставляя продолжать погоню.-Сэмпл: http://multi-up.com/487604
Качество видео: HDTVRip-AVC (HDTV 1080i MPEG-4 AVC by hdclub)
Формат видео: MKV
Видео: 700x396 (16:9); 1152 Kbps; 25,000 fps; 0,166 bpp
Аудио: Russian; AC3; 6ch; 384 kbps; 48Hz; Dub

MediaInfo

Формат : MatroskaРазмер файла : 1,45 ГбайтПродолжительность : 2 ч. 14 м.Общий поток : 1538 Кбит/секДата кодирования : UTC 2011-05-09 11:35:44Программа кодирования : mkvmerge v4.6.0 ('Still Crazy After All These Years') сборка от Mar 10 2011 02:50:32Библиотека кодирования : libebml v1.2.0 + libmatroska v1.1.0
ВидеоИдентификатор : 1Формат : AVCФормат/Информация : Advanced Video CodecПрофиль формата : High@L4.1Параметр CABAC формата : ДаПараметр ReFrames формата : 9 кадрыИдентификатор кодека : V_MPEG4/ISO/AVCПродолжительность : 2 ч. 14 м.Битрейт : 1152 Кбит/секШирина : 700 пикс.Высота : 396 пикс.Соотношение сторон : 16:9Частота кадров : 25,000 кадр/секЦветовое пространство : YUVПодвыборка цветности : 4:2:0Битовая глубина : 8 битТип развёртки : ПрогрессивнаяБит/(Пиксели*Кадры) : 0.166Размер потока : 1,06 Гбайт (73%)Библиотека кодирования : x264 core 114 r1924 08d04a4
Настройки программы : cabac=1 / ref=9 / deblock=1:-3:-2 / analyse=0x3:0x133 / me=umh / subme=10 / psy=1 / psy_rd=1.10:0.15 / mixed_ref=0 / me_range=32 / chroma_me=1 / trellis=2 / 8x8dct=1 / cqm=0 / deadzone=21,11 / fast_pskip=0 / chroma_qp_offset=-3 / threads=3 / sliced_threads=0 / nr=0 / decimate=0 / interlaced=0 / constrained_intra=0 / bframes=9 / b_pyramid=2 / b_adapt=2 / b_bias=0 / direct=3 / weightb=1 / open_gop=2 / weightp=2 / keyint=250 / keyint_min=25 / scenecut=40 / intra_refresh=0 / rc=2pass / mbtree=0 / bitrate=1152 / ratetol=1.0 / qcomp=0.60 / qpmin=0 / qpmax=69 / qpstep=4 / cplxblur=20.0 / qblur=0.5 / ip_ratio=1.40 / pb_ratio=1.30 / aq=2:0.70
Язык : English
АудиоИдентификатор : 2Формат : AC-3Формат/Информация : Audio Coding 3Расширение режима : CM (complete main)Идентификатор кодека : A_AC3Продолжительность : 2 ч. 14 м.Вид битрейта : ПостоянныйБитрейт : 384 Кбит/секКанал(ы) : 6 канала(ов)Расположение каналов : Front: L C R, Side: L R, LFEЧастота : 48,0 КГцБитовая глубина : 16 битМетод сжатия : С потерямиРазмер потока : 371 Мбайт (25%)Заголовок : Дублированный переводЯзык : Russian

_________________
[Торрент-статистика]
[Профиль]  [ЛС] 
Показать сообщения:    
Ответить на тему

Текущее время: Сегодня 07:31

Часовой пояс: GMT + 4



Вы не можете начинать темы
Вы не можете отвечать на сообщения
Вы не можете редактировать свои сообщения
Вы не можете удалять свои сообщения
Вы не можете голосовать в опросах
Вы не можете прикреплять файлы к сообщениям
Вы не можете скачивать файлы