Корабль-призрак / Ghost Ship (Стив Бек) [2002 г., Ужасы, триллер, детектив, DVDRip]

Ответить на тему
 
Автор
Сообщение

диманыыч ®

Пол:

Стаж: 6 лет 10 месяцев

Сообщений: 39

Репутация: 8 [+] [-]

Откуда: Саратов

Пост 16-Фев-2012 09:53

[Цитировать] 

Корабль призрак / Ghost Ship (2002) DVDRipГод выпуска: 2002
Страна: США, Австралия
Жанр: Ужасы, триллер, детектив
Продолжительность: 91 мин. / 01:31
Перевод: Профессиональный (полное дублирование)

Премьера (мир): 22 октября 2002, ...
Премьера (РФ): 13 марта 2003, «Каро-Премьер»
Релиз на DVD: 17 марта 2011, «CP-Digital», ...
Режиссер: Стив Бек
В ролях: Гэбриел Бирн
Джулианна Маргулис
Рон Элдард
Десмонд Харрингтон
Исайя Вашингтон
Алекс Димитриадес
Карл Урбан
Эмили Браунинг
Франческа Реттондини
Борис Бркич
...
Роли дублировали:
Владимир Антоник
Алена Ивченко
Всеволод Кузнецов
Денис Беспалый
Сергей Чекан
...
Описание: В отдаленной области Берингова моря команда спасателей обнаруживает останки огромного пассажирского лайнера, который считался погибшим более 40 лет назад. Оказавшись на борту судна, спасатели сталкиваются с жутким прошлым корабля и вынуждены вступить в смертельную схватку…
Доп. информация: Традиционный жанр «морской страшилки», чьё действие происходит на пропавшем сорок лет назад в Атлантике итальянском океанском лайнере, вновь объявившемся уже в Беринговом море, довольно странно дополнен двумя обстоятельствами, которые всё-таки меняют представление о том, что должно быть в мистическом триллере. Девочка-призрак из числа бывших пассажиров этого корабля не только готова помочь, но даже разговаривает с участниками рискованной экспедиции, отправившимися на поиски таинственного судна, чтобы поживиться тем, что удастся там найти. Да и другие давно умершие вступают в беседы с искателями сокровищ, правда, преследуя иную цель — заманить их и привести к смерти. Поскольку (как выясняется) есть глобальный план у некоего «охотника за душами», который хочет завлечь на исчезнувший лайнер, время от времени опять материализующийся, как можно больше людей.
Видеоформат: AVI
Видеокодек: Xvid
Битрейт видео: ~1843 kbps avg
Размер кадра: 720x400 (1.80:1)
Качество видео: DVDRip
Аудиокодек: AC3
Битрейт аудио: 448.00 kbps avg

media info

[Видеоданные]
Декодер -(XVID) KMP Video Codec(XVID-libcodec.dll)
Формат -Major Type: Video - Sub Type: YUY2
VideoInfo: YUY2 720X400, 16 bits
Формат -Major Type: Video - Sub Type: YV12
VideoInfo: YV12 1024X-400, 12 bits
[Аудиоданные]
Декодер -(0x2000) KMP Audio Codec(AC3(Dolby Digital)-liba52.dll)
Формат -Major Type: Audio - Sub Type: PCM
WaveFormatEx: PCM(0x1), 48000 Hz, 16 Bits, 2 Ch
--------------------
[Сведения о файле]
--------------------
General
Complete name : D:\Новая папка\Korabl' - prizrak (2002) DVDRip.avi
Format : AVI
Format/Info : Audio Video Interleave
File size : 1.46 GiB
Duration : 1h 30mn
Overall bit rate : 2 301 Kbps
Movie name : Корабль-призрак / Ghost Ship (2002) DVDRip
Video #0
ID : 0
Format : MPEG-4 Visual
Format profile : Advanced Simple@L5
Format settings, BVOP : 1
Format settings, QPel : No
Format settings, GMC : No warppoints
Format settings, Matrix : Default (MPEG)
Codec ID : XVID
Codec ID/Hint : XviD
Duration : 1h 30mn
Bit rate : 1 844 Kbps
Width : 720 pixels
Height : 400 pixels
Display aspect ratio : 16:9
Frame rate : 23.976 fps
Color space : YUV
Chroma subsampling : 4:2:0
Bit depth : 8 bits
Scan type : Progressive
Compression mode : Lossy
Bits/(Pixel*Frame) : 0.267
Stream size : 1.17 GiB (80%)
Writing library : XviD 1.2.1 (UTC 2008-12-04)
Audio #1
ID : 1
Format : AC-3
Format/Info : Audio Coding 3
Mode extension : CM (complete main)
Codec ID : 2000
Duration : 1h 30mn
Bit rate mode : Constant
Bit rate : 448 Kbps
Channel(s) : 6 channels
Channel positions : Front: L C R, Side: L R, LFE
Sampling rate : 48.0 KHz
Bit depth : 16 bits
Compression mode : Lossy
Stream size : 291 MiB (19%)
Alignment : Split accross interleaves
Interleave, duration : 42 ms (1.00 video frame)
Interleave, preload duration : 500 ms

Скриншоты

Раздача по мере возможности: 24/7Скачал? Нажми "Спасибо"! Напиши комментарий.

_________________


Последний раз редактировалось: диманыыч (2012-02-17 13:39), всего редактировалось 1 раз
[Торрент-статистика]
[Профиль]  [ЛС] 

Волк

Пол:

Стаж: 6 лет 10 месяцев

Сообщений: 689

Репутация: 300 [+] [-]

Откуда: Армения

Пост 16-Фев-2012 10:51 (спустя 57 минут)

[Цитировать] 

диманыыч, Скриншоты из jpg в png переделаите.
[Торрент-статистика]
[Профиль]  [ЛС] 

диманыыч ®

Пол:

Стаж: 6 лет 10 месяцев

Сообщений: 39

Репутация: 8 [+] [-]

Откуда: Саратов

Пост 17-Фев-2012 13:46 (спустя 1 день 2 часа)

[Цитировать] 

Исправил.

_________________
[Торрент-статистика]
[Профиль]  [ЛС] 
Показать сообщения:    
Ответить на тему

Текущее время: Сегодня 06:08

Часовой пояс: GMT + 4



Вы не можете начинать темы
Вы не можете отвечать на сообщения
Вы не можете редактировать свои сообщения
Вы не можете удалять свои сообщения
Вы не можете голосовать в опросах
Вы не можете прикреплять файлы к сообщениям
Вы не можете скачивать файлы