В поисках древней гробницы / Das Jesus Video (Себастьян Нимэнн) [2002, Фантастика, триллер, DVDRip-AVC]

Ответить на тему
 
Автор
Сообщение

diim ®

Пол:

Стаж: 3 года 4 месяца

Сообщений: 1035

Репутация: 112 [+] [-]

Пост 24-Янв-2012 12:38

[Цитировать] 

В поисках древней гробницы / Das Jesus VideoГод выпуска: 2002
Страна: Германия
Слоган: «Смертельная погоня, начавшаяся две тысячи лет назад...»
Жанр: Фантастика, триллер
Продолжительность: 03:12:42
Перевод: Профессиональный (многоголосый закадровый)-Режиссёр: Себастьян Нимэнн
В ролях: Матиас Кеберлин, Найке Ривелли, Ману Любовски, Ганс Дил, Дитрих Холлиндербаумер, Робинзон Райхель, Клаус Грюнберг, Пьер Семмлер-Описание: Во время раскопок близ Иерусалима молодой археолог Штеффен обнаруживает гробницу двухтысячелетней давности. А в ней — такой же древний скелет, сжимающий в руке инструкцию к суперсовременной видеокамере, еще не поступавшей на рынок, и листок с именем Иисус.
Штеффен предполагает, что нашел останки путешественника во времени, посетившего древнюю Палестину, а камера могла запечатлеть облик Христа. Сенсационная находка, угрожающая основам мировых религий, становится причиной ожесточенной схватки между могущественными силами.
А в руках Штеффена — зашифрованная инструкция, как найти видеокамеру. Преследуемый со всех сторон, он надеется найти разгадку этой невероятной тайны, укрывшись в древнем монастыре в пустыне Негев, где, по легенде, находится «священное зеркало» с обликом Иисуса…--Качество: DVDRip-AVC
Формат: MKV
Видео кодек: AVC
Аудио кодек: AC3 (Dolby Digital)
Видео: 720 x 400 (16:9), 25.000 fps, 695 Kbps, 0.097 bit/pixel
Аудио #1: 48.0 KHz, 6 channels, 384.00 kb/ps avg [Профессиональный (многоголосый закадровый)]
Субтитры: Нет-

MediaInfo

General
Unique ID : 236584885014610175840509793617031308465 (0xB1FC9768DE24DCF1AA7C8C45FD69A4B1)
Complete name : Ohotniki za relikviei.2002.mkv
Format : Matroska
File size : 1.45 GiB
Duration : 3h 12mn
Overall bit rate : 1 081 Kbps
Encoded date : UTC 2009-09-25 12:06:05
Writing application : mkvmerge v2.9.8 ('C'est le bon') built on Aug 13 2009 12:49:06
Writing library : libebml v0.7.7 + libmatroska v0.8.1
Video
ID : 1
Format : AVC
Format/Info : Advanced Video Codec
Format profile : High@L3.0
Format settings, CABAC : Yes
Format settings, ReFrames : 5 frames
Codec ID : V_MPEG4/ISO/AVC
Duration : 3h 12mn
Bit rate : 695 Kbps
Width : 720 pixels
Height : 400 pixels
Display aspect ratio : 16:9
Frame rate : 25.000 fps
Color space : YUV
Chroma subsampling : 4:2:0
Bit depth : 8 bits
Scan type : Progressive
Bits/(Pixel*Frame) : 0.097
Stream size : 931 MiB (62%)
Writing library : x264 core 75 r1259 dd026f2
Encoding settings : cabac=1 / ref=5 / deblock=1:0:0 / analyse=0x3:0x113 / me=umh / subme=8 / psy=1 / psy_rd=1.0:0.0 / mixed_ref=1 / me_range=16 / chroma_me=1 / trellis=1 / 8x8dct=1 / cqm=0 / deadzone=21,11 / chroma_qp_offset=-2 / threads=6 / nr=0 / decimate=1 / mbaff=0 / bframes=3 / b_pyramid=0 / b_adapt=2 / b_bias=0 / direct=3 / wpredb=1 / keyint=250 / keyint_min=25 / scenecut=40 / rc_lookahead=50 / rc=2pass / mbtree=1 / bitrate=695 / ratetol=1.0 / qcomp=0.60 / qpmin=10 / qpmax=51 / qpstep=4 / cplxblur=20.0 / qblur=0.5 / ip_ratio=1.40 / aq=1:1.00
Audio
ID : 2
Format : AC-3
Format/Info : Audio Coding 3
Mode extension : CM (complete main)
Codec ID : A_AC3
Duration : 3h 12mn
Bit rate mode : Constant
Bit rate : 384 Kbps
Channel(s) : 6 channels
Channel positions : Front: L C R, Side: L R, LFE
Sampling rate : 48.0 KHz
Bit depth : 16 bits
Compression mode : Lossy
Stream size : 529 MiB (36%)

Скриншоты

[Торрент-статистика]
[Профиль]  [ЛС] 
Показать сообщения:    
Ответить на тему

Текущее время: Сегодня 23:15

Часовой пояс: GMT + 4



Вы не можете начинать темы
Вы не можете отвечать на сообщения
Вы не можете редактировать свои сообщения
Вы не можете удалять свои сообщения
Вы не можете голосовать в опросах
Вы не можете прикреплять файлы к сообщениям
Вы не можете скачивать файлы