Ослепленный желаниями / Bedazzled (Харольд Рэмис) [2000, Комедия, фэнтези, DVDRip-AVC]

Ответить на тему
 
Автор
Сообщение

diim ®

Пол:

Стаж: 3 года 10 месяцев

Сообщений: 1030

Репутация: 112 [+] [-]

Пост 31-Дек-2011 13:41

[Цитировать] 

Ослепленный желаниями / BedazzledГод выпуска: 2000
Страна: США, Германия
Слоган: «The she devil is giving Elliot seven wishes but not a chance in hell.»
Жанр: Комедия, фэнтези
Продолжительность: 01:33:06
Перевод: Профессиональный (дубляж) + Авторский одноголосый (Ю.Живов) + Оригинальная звуковая дорожка
Субтитры: Русские, Русские, Английские-Режиссёр: Харольд Рэмис
Сценарист: Ларри Гелбарт, Харольд Рэмис, Питер Толан
Продюсер: Тревор Альберт, Харольд Рэмис, Майкл Хейли
Оператор: Билл Поуп
Композитор: Дэвид Ньюман
В ролях: Брендан Фрейзер, Элизабет Херли, Фрэнсис О’Коннор, Мириам Шор, Орландо Джонс, Пол Адельштейн, Тоби Хасс, Гэбриел Коссес, Брайан Дойл-Мюррэй, Джефф Дусетте-Описание: Дьявол еще никогда не был таким соблазнительным. В этот раз он принимает обличие распутной красотки, заставляющий любого мужчину броситься в объятия безумства. Неудачник-программист — лучший объект для вербовки.
Объект продажи — бессмертная душа. Цена — 7 желаний. Но в этой жизни бесплатным бывает лишь сыр в мышеловке, каждая медаль имеет две стороны. Выполняя любое желание продажной души, дьявол не дает насладиться результатом. В мгновение ока жизнь программиста превращается в настоящий ад.-Рейтинг MPAA: Рейтинг PG-13 (Дети до 13 лет допускаются на фильм только с родителями)
Мировая премьера: 19 октября 2000
Премьера в России: 20 декабря 2000
Бюджет: $48 000 000
Кассовые сборы: $90 383 208-Качество: DVDRip-AVC
Формат: MKV
Видео кодек: H264 (AVC)
Аудио кодек: AC3 (Dolby Digital)
Видео: 712x364, 2.35:1, 23.976 fps, 2074 kbps
Аудио #1: 48 kHz, 384 kbps, 6ch [Профессиональный (дубляж)]- со вставкой MVO
Аудио #2: 48 kHz, 448 kbps, 6ch [Авторский одноголосый (Ю.Живов)]
Аудио #3: 48 kHz, 448 kbps, 6ch [Оригинальная звуковая дорожка]
Субтитры: Русские, Русские, Английские-Сэмпл

Скриншоты

Знаете ли Вы, что...

Оригинальный «Ослеплённый желаниями» 1967 года был любимым фильмом Брендана Фрейзера в детстве.
Своих псов на пляже Дьявол называет Дадли и Питер - эта шутка отсылает к именам Питера Кука и Дадли Мура, сценаристов оригинального фильма 1967 года.

Из книги «3500 кинорецензий»

Фантазийная комедия
Эта лента, которой в нашем прокате дали несколько неуклюжее название «Ослеплённый желаниями», является римейком картины «Ослеплённый блеском» Стенли Донена, снятой им в Великобритании ещё в 1967 году. Хэролд Рэмис, режиссёр новой версии, специализирующийся на комедиях разного типа (самая прославленная из них — «День сурка»), ловко осовременил прежний фильм, наполнив действие забавными шутками. А главное — придал с помощью британской актрисы Элизабет Хёрли по-настоящему соблазнительное женское обличье Дьяволу (ведь не зря говорится, что «дьявол — это женщина»).
Этот самый дьявол предлагает застенчивому и неудачливому парню Эллиоту Ричардсону, техническому советнику из телефонной компании, который напрасно влюблён в течение уже четырёх лет в привлекательную сотрудницу Элисон Гарднер, исполнение заветных семи желаний в обмен на его душу. И Эллиот непременно хочет реализовать свои невоздержанные фантазии, представляя себя самыми разными людьми — от звезды баскетбола до колумбийского наркобарона. Однако и Лукавый тоже меняет различные личины, оказываясь то прельщающей школьницей, то сладострастной медсестрой, то сексапильной красоткой в бикини, каждый раз подзадоривая типичные мужские мечты об обладании недостижимыми объектами влечения, а потом хитроумно обманывая простодушного героя, опять оставляя его ни с чем.
Этот фильм, обошедшийся во всё-таки весомую сумму ($48 млн.), как ни странно, не очень-то удачно прошёл в США, но вот в мировом прокате смог почти вдвое компенсировать свои затраты.

MediaInfo

General
Unique ID : 184115298735074253278672306898510496574 (0x8A8351139A5E66FA86663E6FD67B433E)
Complete name : Ослепленный желаниями.2000.mkv
Format : Matroska
Format version : Version 2
File size : 2.18 GiB
Duration : 1h 33mn
Overall bit rate : 3 352 Kbps
Movie name : Ослеплённый желаниями / Bedazzled (2000) DVDRip
Encoded date : UTC 2011-04-22 09:40:19
Writing application : mkvmerge v4.6.0 ('Still Crazy After All These Years') built on Mar 10 2011 02:50:32
Writing library : libebml v1.2.0 + libmatroska v1.1.0
Video
ID : 1
Format : AVC
Format/Info : Advanced Video Codec
Format profile : High@L3.1
Format settings, CABAC : Yes
Format settings, ReFrames : 16 frames
Codec ID : V_MPEG4/ISO/AVC
Duration : 1h 33mn
Bit rate : 2 074 Kbps
Width : 712 pixels
Height : 364 pixels
Display aspect ratio : 2.35:1
Original display aspect ratio : 2.35:1
Frame rate : 23.976 fps
Color space : YUV
Chroma subsampling : 4:2:0
Bit depth : 8 bits
Scan type : Progressive
Bits/(Pixel*Frame) : 0.334
Stream size : 1.30 GiB (60%)
Writing library : x264 core 115 r1937 aa21558
Encoding settings : cabac=1 / ref=16 / deblock=1:-2:-2 / analyse=0x3:0x133 / me=umh / subme=10 / psy=1 / psy_rd=1.00:0.25 / mixed_ref=1 / me_range=32 / chroma_me=1 / trellis=2 / 8x8dct=1 / cqm=0 / deadzone=6,6 / fast_pskip=0 / chroma_qp_offset=-4 / threads=3 / sliced_threads=0 / nr=0 / decimate=0 / interlaced=0 / bluray_compat=0 / constrained_intra=0 / bframes=16 / b_pyramid=2 / b_adapt=1 / b_bias=0 / direct=3 / weightb=1 / open_gop=0 / weightp=2 / keyint=250 / keyint_min=23 / scenecut=40 / intra_refresh=0 / rc=2pass / mbtree=0 / bitrate=2074 / ratetol=1.0 / qcomp=0.80 / qpmin=0 / qpmax=69 / qpstep=4 / cplxblur=20.0 / qblur=0.5 / ip_ratio=1.10 / pb_ratio=1.10 / aq=2:0.50
Language : English
Matrix coefficients : BT.601-6 525, BT.1358 525, BT.1700 NTSC, SMPTE 170M
Audio #1
ID : 2
Format : AC-3
Format/Info : Audio Coding 3
Mode extension : CM (complete main)
Codec ID : A_AC3
Duration : 1h 33mn
Bit rate mode : Constant
Bit rate : 384 Kbps
Channel(s) : 6 channels
Channel positions : Front: L C R, Side: L R, LFE
Sampling rate : 48.0 KHz
Bit depth : 16 bits
Compression mode : Lossy
Delay relative to video : 4ms
Stream size : 256 MiB (11%)
Title : Dub с DVD R5 к DVD R1 с MVO-вставкой испанского эпизода с VHS (монтаж BadBoy 911)
Language : Russian
Audio #2
ID : 3
Format : AC-3
Format/Info : Audio Coding 3
Mode extension : CM (complete main)
Codec ID : A_AC3
Duration : 1h 33mn
Bit rate mode : Constant
Bit rate : 448 Kbps
Channel(s) : 6 channels
Channel positions : Front: L C R, Side: L R, LFE
Sampling rate : 48.0 KHz
Bit depth : 16 bits
Compression mode : Lossy
Delay relative to video : 4ms
Stream size : 298 MiB (13%)
Title : AVO Живов
Language : Russian
Audio #3
ID : 4
Format : AC-3
Format/Info : Audio Coding 3
Mode extension : CM (complete main)
Codec ID : A_AC3
Duration : 1h 33mn
Bit rate mode : Constant
Bit rate : 448 Kbps
Channel(s) : 6 channels
Channel positions : Front: L C R, Side: L R, LFE
Sampling rate : 48.0 KHz
Bit depth : 16 bits
Compression mode : Lossy
Delay relative to video : 4ms
Stream size : 298 MiB (13%)
Language : English
Text #1
ID : 5
Format : UTF-8
Codec ID : S_TEXT/UTF8
Codec ID/Info : UTF-8 Plain Text
Title : Forced ESP part
Language : Russian
Text #2
ID : 6
Format : UTF-8
Codec ID : S_TEXT/UTF8
Codec ID/Info : UTF-8 Plain Text
Language : Russian
Text #3
ID : 7
Format : UTF-8
Codec ID : S_TEXT/UTF8
Codec ID/Info : UTF-8 Plain Text
Language : English
Menu
00:00:00.000 : :01. Main Titles
00:03:21.667 : :02. Elliot
00:05:58.167 : :03. The Girl of His Dreams
00:09:22.167 : :04. The Woman in Red
00:15:47.834 : :05. A Devilish Offer
00:19:45.334 : :06. Seven Fabulous Wishes
00:25:21.334 : :07. Rich, Powerful & ... Spanish?
00:28:07.668 : :08. The Warped Wish
00:36:36.168 : :09. Her Kind of Man
00:40:51.668 : :10. Mr. Sensitive
00:46:43.668 : :11. What Have We Learned?
00:49:21.502 : :12. Big, Strong & Rich
00:52:41.370 : :13. A Tiny Problem
00:57:41.838 : :14. Witty & Articulate
01:02:36.505 : :15. His Kind of Man
01:04:10.339 : :16. Hot for Teacher
01:06:50.839 : :17. A Shot of the Presidency
01:08:28.173 : :18. One Wish Left
01:13:33.007 : :19. Open Up Your Heart
01:16:27.841 : :20. The Last Wish
01:20:03.008 : :21. The Deal Breaker
01:22:43.342 : :22. A New Elliot
01:24:37.342 : :23. The Girl Next Door
01:26:57.342 : :24. End Titles
[Торрент-статистика]
[Профиль]  [ЛС] 
Показать сообщения:    
Ответить на тему

Текущее время: Сегодня 20:31

Часовой пояс: GMT + 4



Вы не можете начинать темы
Вы не можете отвечать на сообщения
Вы не можете редактировать свои сообщения
Вы не можете удалять свои сообщения
Вы не можете голосовать в опросах
Вы не можете прикреплять файлы к сообщениям
Вы не можете скачивать файлы