Ослепленный желанием / Bedazzled (Харолд Рэмис / Harold Ramis) [2000, США, фэнтези, мелодрама, комедия, HDRip] DUB + Original (Eng) + Subs (Rus, Eng)

Ответить на тему
 
Автор
Сообщение

awk05 ®

Пол:

Стаж: 5 лет 7 месяцев

Сообщений: 1352

Репутация: 275 [+] [-]

Откуда: Западная Украина Ривне

Пост 23-Янв-2014 00:23

[Цитировать] 

--Ослепленный желаниями / Bedazzled-- Страна: США
Жанр: фэнтези, мелодрама, комедия
Год выпуска: 2000
Продолжительность: 01:33:07
Перевод: Дублированный
Cубтитры: русские (на непереведенную речь), русские (полные), английские
Оригинальная аудиодорожка: английская--
Режиссер: Харольд Рэмис / Harold Ramis--
В ролях: Брендан Фрейзер(Elliot Richards /Jefe /Mary), Элизабет Херли(The Devil), Фрэнсис О’Коннор(Alison Gardner /Nicole Delarusso), Мириам Шор(Carol /Penthouse Hostess), Орландо Джонс(Daniel /Dan /Danny /Esteban /Beach Jock /Lamar Garrett /Dr. Ngegitigegitibaba), Пол Адельштейн(Bob /Roberto /Beach Jock /Bob Bob (Sportscaster #3), Тоби Хасс( Jerry /Alejandro /Beach Jock /Jerry Turner (Sportscaster #2), /Lance), Гэбриел Коссес(Elliot's Cellmate /Angel), Брайан Дойл-Мюррей(Priest), Джефф Дусетте(Desk Sergeant)--
Описание: Дьявол еще никогда не был таким соблазнительным. В этот раз он принимает обличие распутной красотки, заставляющий любого мужчину броситься в объятия безумства. Неудачник-программист — лучший объект для вербовки.
Объект продажи — бессмертная душа. Цена — 7 желаний. Но в этой жизни бесплатным бывает лишь сыр в мышеловке, каждая медаль имеет две стороны. Выполняя любое желание продажной души, дьявол не дает насладиться результатом. В мгновение ока жизнь программиста превращается в настоящий ад.--

Качество видео: HDRip
Формат видео: AVI
Видео кодек: XviD
Аудио кодек: AC3
Видео: 720x304 (2.37:1), 23.976 fps, XviD build 65 ~1841 kbps avg, 0.35 bit/pixel
Аудио #1: Russian 48 kHz, AC3 Dolby Digital, 3/2 (L,C,R,l,r) + LFE ch, ~384 kbps |Дубляж|
Аудио #2: English 48 kHz, AC3 Dolby Digital, 3/2 (L,C,R,l,r) + LFE ch, ~384 kbps (отдельно)--
--

Скриншоты

MI

Код:
Format : AVI
Format/Info : Audio Video Interleave
File size : 1.45 GiB
Duration : 1h 33mn
Overall bit rate : 2 234 Kbps
Writing application : VirtualDubMod 1.5.10.2 (build 2542/release)
Writing library : VirtualDubMod build 2542/release
Video
ID : 0
Format : MPEG-4 Visual
Format profile : Advanced Simple@L5
Format settings, BVOP : 1
Format settings, QPel : No
Format settings, GMC : No warppoints
Format settings, Matrix : Custom
Codec ID : XVID
Codec ID/Hint : XviD
Duration : 1h 33mn
Bit rate : 1 841 Kbps
Width : 720 pixels
Height : 304 pixels
Display aspect ratio : 2.35:1
Frame rate : 23.976 fps
Color space : YUV
Chroma subsampling : 4:2:0
Bit depth : 8 bits
Scan type : Progressive
Compression mode : Lossy
Bits/(Pixel*Frame) : 0.351
Stream size : 1.20 GiB (82%)
Writing library : XviD 65
Audio
ID : 1
Format : AC-3
Format/Info : Audio Coding 3
Mode extension : CM (complete main)
Codec ID : 2000
Duration : 1h 33mn
Bit rate mode : Constant
Bit rate : 384 Kbps
Channel(s) : 6 channels
Channel positions : Front: L C R, Side: L R, LFE
Sampling rate : 48.0 KHz
Bit depth : 16 bits
Compression mode : Lossy
Stream size : 256 MiB (17%)
Alignment : Split accross interleaves
Interleave, duration : 42 ms (1.00 video frame)
Interleave, preload duration : 500 ms
Title : Dub

_________________
[Торрент-статистика]
[Профиль]  [ЛС] 
Показать сообщения:    
Ответить на тему

Текущее время: Сегодня 14:06

Часовой пояс: GMT + 4



Вы не можете начинать темы
Вы не можете отвечать на сообщения
Вы не можете редактировать свои сообщения
Вы не можете удалять свои сообщения
Вы не можете голосовать в опросах
Вы не можете прикреплять файлы к сообщениям
Вы не можете скачивать файлы