Ограбление по-итальянски / The Italian Job (Ф. Гари Грэй / F. Gary Gray) [2003 г., США, Боевик, триллер, криминал, BDRip] Dub

Ответить на тему
 
Автор
Сообщение

awk05 ®

Пол:

Стаж: 6 лет 6 месяцев

Сообщений: 1347

Репутация: 275 [+] [-]

Откуда: Западная Украина Ривне

Пост 22-Янв-2014 20:16

[Цитировать] 

--Ограбление по-итальянски / The Italian Job-- Год выпуска: 2003
Страна: США, Франция, Великобритания
Жанр: Боевик, триллер, криминал
Продолжительность 01:50:32
Перевод: Профессиональный (дублированный)
Субтитры: нет--
Режиссер: Ф. Гари Грэй / F. Gary Gray--
В ролях: Марк Уолберг(Charlie Croker), Шарлиз Терон(Stella Bridger), Эдвард Нортон(Steve), Джейсон Стэйтем(Handsome Rob), Сет Грин( Lyle), Мос Деф(Left Ear), Дональд Сазерленд(John Bridger), Фрэнки Джи(Wrench), Олек Крупа(Mashkov), Оскар Нунез(Security Guard), Фаусто Каллегарини( Italian Guard)--
Описание: Банда грабителей под руководством Чарли Крокера во всю прыть несется на Мини Куперах по улицам Лос-Анджелеса и даже заныривает в подземку. Банда стремится увезти в безопасное место добычу — сейф, набитый золотом.
В Лос-Анджелесе с его чудовищными пробками просто так не поездишь, поэтому банда предварительно позаботилась о «зеленой улице» для себя: на всех светофорах по пути их следования горит только зеленый свет. Для остальных, соответственно, горит красный, что провоцирует грандиознейшую в истории Лос-Анджелеса дорожную пробку.--

Качество: BDRip
Формат: AVI
Видео кодек: XviD
Аудио кодек: AC3
Видео: 720x304 (2.35:1), 23.976 fps, XviD build 65 ~1491 kbps avg, 0.284 bit/pixel
Аудио: 48 kHz, AC3 Dolby Digital, 3/2 (L,C,R,l,r) + LFE ch, ~384.00 kbps avg--
--

MediaInfo

Общее
Полное имя : D:\раздачи\Ograblenie_Po_Italyansky_2003_BDRip_Menen.avi
Формат : AVI
Формат/Информация : Audio Video Interleave
Размер файла : 1,45 Гбайт
Продолжительность : 1 ч. 50 м.
Общий поток : 1884 Кбит/сек
Название фильма : Ograblenie_Po_Italyansky_2003_BDRip_Menen
Режиссёр : Menen
Программа кодирования : VirtualDubMod 1.5.10.2 (build 2540/release)
Видео
Идентификатор : 0
Формат : MPEG-4 Visual
Профиль формата : Advanced Simple@L5
Параметр BVOP формата : 1
Параметр QPel формата : Нет
Параметр GMC формата : Без точки перехода
Параметр матрицы формата : Выборочная
Идентификатор кодека : XVID
Идентификатор кодека/Подсказка : XviD
Продолжительность : 1 ч. 50 м.
Битрейт : 1491 Кбит/сек
Ширина : 720 пикселей
Высота : 304 пикселя
Соотношение сторон : 2,35:1
Частота кадров : 23,976 кадра/сек
Цветовое пространство : YUV
Субдискретизация насыщенности : 4:2:0
Битовая глубина : 8 бит
Тип развёртки : Прогрессивная
Метод сжатия : С потерями
Бит/(Пиксели*Кадры) : 0.284
Размер потока : 1,15 Гбайт (79%)
Библиотека кодирования : XviD 65
Аудио
Идентификатор : 1
Формат : AC-3
Формат/Информация : Audio Coding 3
Расширение режима : CM (complete main)
Параметр Endianness формата : Big
Идентификатор кодека : 2000
Продолжительность : 1 ч. 50 м.
Вид битрейта : Постоянный
Битрейт : 384 Кбит/сек
Каналы : 6 каналов
Расположение каналов : Front: L C R, Side: L R, LFE
Частота : 48,0 КГц
Битовая глубина : 16 бит
Метод сжатия : С потерями
Размер потока : 304 Мбайт (20%)
Выравнивание : Разделение по промежуткам
Продолжительность промежутка : 42 мс. (1,00 видеокадр)
Время предзагрузки промежутка : 500 мс.

_________________
[Торрент-статистика]
[Профиль]  [ЛС] 
Показать сообщения:    
Ответить на тему

Текущее время: Сегодня 09:12

Часовой пояс: GMT + 4



Вы не можете начинать темы
Вы не можете отвечать на сообщения
Вы не можете редактировать свои сообщения
Вы не можете удалять свои сообщения
Вы не можете голосовать в опросах
Вы не можете прикреплять файлы к сообщениям
Вы не можете скачивать файлы