Обмен телами / Xchange (Аллан Мойле / Allan Moyle) [2000 г., боевик, фантастика, DVDRip]

Ответить на тему
 
Автор
Сообщение

awk05 ®

Пол:

Стаж: 5 лет 7 месяцев

Сообщений: 1352

Репутация: 275 [+] [-]

Откуда: Западная Украина Ривне

Пост 22-Янв-2014 19:34

[Цитировать] 

--Обмен телами / Xchange -- Страна: Канада
Жанр: научная фантастика, триллер
Продолжительность: 01:45:00
Год выпуска 2000
Перевод: Профессиональный (многоголосый, закадровый) + Original
Субтитры: отсутствуют--
Режиссёр: Аллан Мойл / Allan Moyle--
В ролях: Стивен Болдуин (Clone #1 / Toffler 3), Паскаль Бюссьер (Madeleine Renard), Ким Коутс (Toffler / Fisk 2), Кайл МакЛоклен (Fisk / Toffler 2), Том Рэк ( Mr. Finerman),
Арнольд Пиннок (Dickerson), Чарльз Эдвин Пауэлл (Quayle Scott), Джуда Кац ( Lister), Шон Дивайн (Rix), Джанет Киддер (Alison De Waay)--

Описание: Наступило завтра: миром правят корпорации, у простых людей апатия, а у сильных мира сего привилегии. На черную работу отправляют клонов - они сильны и выносливы, правда, живут всего несколько дней. Широко распространенным развлечением становится переселение сознания: поменяться с кем-нибудь телами - что может быть интереснее? Впрочем, не все разделяют эту точку зрения. Скажем, Стивен Тоффлер, занимая ключевой пост в одной из корпораций, предпочитает оставаться в своем теле. Но руководство требует его присутствия в Сан-Франциско, а времени на перелет нет, и приходится меняться телами. Только вот незадача: тело Тоффлера оказывается у террориста, который намерен использовать его в собственных целях.--
Качество: DVDRip
Формат: AVI
Видео кодек: XviD
Аудио кодек: AC3
Видео: 720x544 (4:3), 23,976 кадра/сек, 1084 Кбит/сек, 0.111 Бит/(Пиксели*Кадры)
Аудио 1: 6 каналов Front: L C R, Side: L R, LFE, 48,0 КГц, 384 Кбит/сек [RUS]
Аудио 2: 6 каналов Front: L C R, Side: L R, LFE, 48,0 КГц, 384 Кбит/сек [ENG]--
--

MediaInfo

Общее
Полное имя : D:\раздачи\Obmen_telami.avi
Формат : AVI
Формат/Информация : Audio Video Interleave
Размер файла : 1,37 Гбайт
Продолжительность : 1 ч. 45 м.
Общий поток : 1861 Кбит/сек
Программа кодирования : VirtualDubMod 1.5.4.1 (build 2178/release)
Библиотека кодирования : VirtualDubMod build 2178/release
Видео
Идентификатор : 0
Формат : MPEG-4 Visual
Профиль формата : Advanced Simple@L5
Параметр BVOP формата : 1
Параметр QPel формата : Нет
Параметр GMC формата : Без точки перехода
Параметр матрицы формата : Выборочная
Идентификатор кодека : XVID
Идентификатор кодека/Подсказка : XviD
Продолжительность : 1 ч. 45 м.
Битрейт : 1084 Кбит/сек
Ширина : 720 пикселей
Высота : 544 пикселя
Соотношение сторон : 4:3
Частота кадров : 25,000 кадров/сек
Цветовое пространство : YUV
Субдискретизация насыщенности : 4:2:0
Битовая глубина : 8 бит
Тип развёртки : Прогрессивная
Метод сжатия : С потерями
Бит/(Пиксели*Кадры) : 0.111
Размер потока : 814 Мбайт (58%)
Библиотека кодирования : XviD 1.2.0.dev47 (UTC 2006-11-01)
Аудио #1
Идентификатор : 1
Формат : AC-3
Формат/Информация : Audio Coding 3
Расширение режима : CM (complete main)
Параметр Endianness формата : Big
Идентификатор кодека : 2000
Продолжительность : 1 ч. 45 м.
Вид битрейта : Постоянный
Битрейт : 384 Кбит/сек
Каналы : 6 каналов
Расположение каналов : Front: L C R, Side: L R, LFE
Частота : 48,0 КГц
Битовая глубина : 16 бит
Метод сжатия : С потерями
Размер потока : 289 Мбайт (21%)
Выравнивание : Разделение по промежуткам
Продолжительность промежутка : 96 мс. (2,40 видеокадра)
Время предзагрузки промежутка : 96 мс.
Язык : Russian
Аудио #2
Идентификатор : 2
Формат : AC-3
Формат/Информация : Audio Coding 3
Расширение режима : CM (complete main)
Параметр Endianness формата : Big
Идентификатор кодека : 2000
Продолжительность : 1 ч. 45 м.
Вид битрейта : Постоянный
Битрейт : 384 Кбит/сек
Каналы : 6 каналов
Расположение каналов : Front: L C R, Side: L R, LFE
Частота : 48,0 КГц
Битовая глубина : 16 бит
Метод сжатия : С потерями
Размер потока : 289 Мбайт (21%)
Выравнивание : Разделение по промежуткам
Продолжительность промежутка : 96 мс. (2,40 видеокадра)
Время предзагрузки промежутка : 96 мс.
Язык : English

_________________
[Торрент-статистика]
[Профиль]  [ЛС] 
Показать сообщения:    
Ответить на тему

Текущее время: Сегодня 14:19

Часовой пояс: GMT + 4



Вы не можете начинать темы
Вы не можете отвечать на сообщения
Вы не можете редактировать свои сообщения
Вы не можете удалять свои сообщения
Вы не можете голосовать в опросах
Вы не можете прикреплять файлы к сообщениям
Вы не можете скачивать файлы