Неудержимые / Riders (Жерар Пирес / Gérard Pirès) [2002 г., боевик, триллер, криминал, DVDRip] Dub + Original + sub

Ответить на тему
 
Автор
Сообщение

awk05 ®

Пол:

Стаж: 5 лет 7 месяцев

Сообщений: 1352

Репутация: 275 [+] [-]

Откуда: Западная Украина Ривне

Пост 22-Янв-2014 03:38

[Цитировать] 

--Неудержимые / Riders«Extrem hart - Extrem schnell - Extrem gefährlich»--
Страна: Канада, Франция, Великобритания
Жанр: боевик, триллер, криминал | |
Год выпуска: 2002
Продолжительность: 01:20:46
Перевод: Профессиональный (полное дублирование)
Русские субтитры: есть √ отдельно *srt--
Режиссер: Жерар Пирес / Gérard Pirès--
В ролях: Стивен Дорфф (Slim), Наташа Хенстридж (Karen), Брюс Пэйн (Lt. Macgruder), Стивен Беркофф (Surtayne), Кле Беннетт (Otis), Карен Клише (Alex), Стивен МакКарти (Frank), Ален Голем (Pandelis), Андреас Апергис (Nixdorfer), Том МакКэмус (Jerry), Андерсон С. Брэдшоу (Sargeant Garret), Дэвид Гоу (Charlie / Brinks)--
Описание: Нет такого вида спорта, который был бы недоступен Слиму, Отису, Фрэнку и Алексе. Но им милее то, что щекочет нервы и стимулирует выброс адреналина. Прыгнуть с моста, упасть в море, сидя в грузовике - нет проблем! А уж про роликовый слалом по запруженным машинам и говорить нечего.
Только просто рисковать жизнью парням не интересно. И все это они делают, предварительно обчистив очередной банк. В конце концов, лидер команды Слим, принимает решение о том, что пора завязывать. Он понимает, что последняя операция будет очень не простая, вся полиция города будет у них на хвосте, и это еще не все…--

Качество: DVDRip
Формат: AVI
Видео кодек: XviD
Аудио кодек: AC3
Видео: 718x432 (2.35:1), 25,000 fps, XviD build 50 ~2450 kbps avg, 0.316 bit/pixel
Аудио#1: 48 kHz, AC3 Dolby Digital, 3/2 (L,C,R,l,r) + LFE ch, ~448 kbps [RUS]
Аудио#2: 48 kHz, AC3 Dolby Digital, 3/2 (L,C,R,l,r) + LFE ch, ~448 kbps [ENG]--
--

MediaInfo

Общее
Уникальный идентификатор : 203019249945616486880761696554147261979 (0x98BC15D4A15746ADA138CF1514162E1B)
Полное имя : D:\раздачи\Neuderzhimye_2002_tRuAVC_by_vovaniez.mkv
Формат : Matroska
Версия формата : Version 2
Размер файла : 1,89 Гбайт
Продолжительность : 1 ч. 20 м.
Общий поток : 3348 Кбит/сек
Дата кодирования : UTC 2012-02-11 10:17:31
Программа кодирования : mkvmerge v4.5.0 ('Speed of Light') built on Feb 1 2011 02:10:32
Библиотека кодирования : libebml v1.2.0 + libmatroska v1.1.0
Видео
Идентификатор : 1
Формат : AVC
Формат/Информация : Advanced Video Codec
Профиль формата : High@L4.1
Параметр CABAC формата : Да
Параметр ReFrames формата : 6 кадров
Идентификатор кодека : V_MPEG4/ISO/AVC
Продолжительность : 1 ч. 20 м.
Битрейт : 2450 Кбит/сек
Ширина : 718 пикселей
Высота : 432 пикселя
Соотношение сторон : 2,35:1
Соотношение сторон в оригинале : 2,35:1
Режим частоты кадров : Постоянный
Частота кадров : 25,000 кадров/сек
Цветовое пространство : YUV
Субдискретизация насыщенности : 4:2:0
Битовая глубина : 8 бит
Тип развёртки : Прогрессивная
Бит/(Пиксели*Кадры) : 0.316
Размер потока : 1,35 Гбайт (71%)
Библиотека кодирования : x264 core 116 r2074kMod 2641b9e
Настройки программы : cabac=1 / ref=6 / deblock=1:-2:-1 / analyse=0x3:0x133 / me=umh / subme=11 / psy=1 / fade_compensate=0.00 / psy_rd=1.00:0.00 / mixed_ref=1 / me_range=32 / chroma_me=1 / trellis=2 / 8x8dct=1 / cqm=0 / deadzone=21,11 / fast_pskip=0 / chroma_qp_offset=-2 / threads=3 / sliced_threads=0 / nr=0 / decimate=0 / interlaced=0 / bluray_compat=0 / constrained_intra=0 / bframes=9 / b_pyramid=2 / b_adapt=2 / b_bias=0 / direct=3 / weightb=1 / open_gop=0 / weightp=2 / keyint=250 / keyint_min=25 / scenecut=40 / intra_refresh=0 / rc_lookahead=60 / rc=2pass / mbtree=1 / bitrate=2450 / ratetol=1.0 / qcomp=0.75 / qpmin=0 / qpmax=69 / qpstep=4 / cplxblur=20.0 / qblur=0.5 / vbv_maxrate=50000 / vbv_bufsize=62500 / nal_hrd=none / ip_ratio=1.40 / aq=1:1.00
Язык : English
Default : Да
Forced : Нет
Коэффициенты матрицы : BT.601
Аудио #1
Идентификатор : 2
Формат : AC-3
Формат/Информация : Audio Coding 3
Расширение режима : CM (complete main)
Параметр Endianness формата : Big
Идентификатор кодека : A_AC3
Продолжительность : 1 ч. 20 м.
Вид битрейта : Постоянный
Битрейт : 448 Кбит/сек
Каналы : 6 каналов
Расположение каналов : Front: L C R, Side: L R, LFE
Частота : 48,0 КГц
Битовая глубина : 16 бит
Метод сжатия : С потерями
Размер потока : 259 Мбайт (13%)
Заголовок : Русский (дубляж)
Язык : Russian
Default : Да
Forced : Нет
Аудио #2
Идентификатор : 3
Формат : AC-3
Формат/Информация : Audio Coding 3
Расширение режима : CM (complete main)
Параметр Endianness формата : Big
Идентификатор кодека : A_AC3
Продолжительность : 1 ч. 20 м.
Вид битрейта : Постоянный
Битрейт : 448 Кбит/сек
Каналы : 6 каналов
Расположение каналов : Front: L C R, Side: L R, LFE
Частота : 48,0 КГц
Битовая глубина : 16 бит
Метод сжатия : С потерями
Размер потока : 259 Мбайт (13%)
Заголовок : Оригинал
Язык : English
Default : Нет
Forced : Нет
Текст
Идентификатор : 4
Формат : UTF-8
Идентификатор кодека : S_TEXT/UTF8
Идентификатор кодека/Информация : UTF-8 Plain Text
Заголовок : Русские
Язык : Russian
Default : Нет
Forced : Нет

_________________
[Торрент-статистика]
[Профиль]  [ЛС] 
Показать сообщения:    
Ответить на тему

Текущее время: Сегодня 14:14

Часовой пояс: GMT + 4



Вы не можете начинать темы
Вы не можете отвечать на сообщения
Вы не можете редактировать свои сообщения
Вы не можете удалять свои сообщения
Вы не можете голосовать в опросах
Вы не можете прикреплять файлы к сообщениям
Вы не можете скачивать файлы