Мошенники / Serving Sara (Реджинальд Хадлин / Reginald Hudlin) [2002, США, Германия, Комедия, мелодрама, DVDRip] DUB

Ответить на тему
 
Автор
Сообщение

awk05 ®

Пол:

Стаж: 6 лет 6 месяцев

Сообщений: 1347

Репутация: 275 [+] [-]

Откуда: Западная Украина Ривне

Пост 21-Янв-2014 06:58

[Цитировать] 

--Мошенники / Serving Sara-- Страна: США, Германия
Жанр: Комедия, мелодрама
Год выпуска: 2002
Продолжительность: 01:39:31
Перевод: Профессиональный (дублированный)
Cубтитры: нет--
Режиссер: Реджинальд Хадлин / Reginald Hudlin--
В ролях: Мэттью Перри, Элизабет Херли, Винсент Пасторе, Брюс Кэмпбелл, Эми Адамс, Терри Крюс, Джерри Стиллер, Маршалл Белл, Дерек Саузерс, Алайна Хаффман--
Описание: Развод по-американски — это «развод» на деньги. Стоит только вытереть слезы и с помощью ушлого парня из адвокатской конторы «развести» бывшего муженька и его новую пассию на миллион долларов. Все, что для этого нужно, — небольшая афера.
Гордон и Сара Мур не совсем обычная супружеская пара. Сара — типичная англичанка, Гордон — типичный техасец. Благодаря совместным усилиям их скотоводческое ранчо приносит огромные доходы. Прощаясь с мужем в аэропорту и садясь в самолет, направляющийся в Нью-Йорк, Сара и подумать не могла, какой сюрприз приготовил ей благоверный. В его жизни появилась другая женщина, и он хочет развестись.--

Качество: DVDRip
Формат: AVI
Видео кодек: XviD
Аудио кодек: AC3
Видео: 700x400 (16:9), 23,976 кадра/сек, 1625 Кбит/сек, 0.241 Бит/(Пиксели*Кадры)
Аудио: 6 каналов Front: L C R, Side: L R, LFE, 48,0 КГц, 448 Кбит/сек Rus-- --

MediaInfo

Общее
Полное имя : D:\раздачи\Moshenniki.2002.DVDRip.avi
Формат : AVI
Формат/Информация : Audio Video Interleave
Размер файла : 1,45 Гбайт
Продолжительность : 1 ч. 39 м.
Общий поток : 2082 Кбит/сек
Программа кодирования : VirtualDubMod 1.5.10.2 (build 2540/release)
Библиотека кодирования : VirtualDubMod build 2540/release
Видео
Идентификатор : 0
Формат : MPEG-4 Visual
Профиль формата : Advanced Simple@L5
Параметр BVOP формата : 1
Параметр QPel формата : Нет
Параметр GMC формата : Без точки перехода
Параметр матрицы формата : Default (MPEG)
Идентификатор кодека : XVID
Идентификатор кодека/Подсказка : XviD
Продолжительность : 1 ч. 39 м.
Битрейт : 1625 Кбит/сек
Ширина : 704 пикселя
Высота : 400 пикселей
Соотношение сторон : 16:9
Частота кадров : 23,976 кадра/сек
Цветовое пространство : YUV
Субдискретизация насыщенности : 4:2:0
Битовая глубина : 8 бит
Тип развёртки : Прогрессивная
Метод сжатия : С потерями
Бит/(Пиксели*Кадры) : 0.241
Размер потока : 1,13 Гбайт (78%)
Библиотека кодирования : XviD 1.2.1 (UTC 2008-12-04)
Аудио
Идентификатор : 1
Формат : AC-3
Формат/Информация : Audio Coding 3
Расширение режима : CM (complete main)
Параметр Endianness формата : Big
Идентификатор кодека : 2000
Продолжительность : 1 ч. 39 м.
Вид битрейта : Постоянный
Битрейт : 448 Кбит/сек
Каналы : 6 каналов
Расположение каналов : Front: L C R, Side: L R, LFE
Частота : 48,0 КГц
Битовая глубина : 16 бит
Метод сжатия : С потерями
Размер потока : 319 Мбайт (21%)
Выравнивание : Разделение по промежуткам
Продолжительность промежутка : 42 мс. (1,00 видеокадр)
Время предзагрузки промежутка : 500 мс.

_________________
[Торрент-статистика]
[Профиль]  [ЛС] 
Показать сообщения:    
Ответить на тему

Текущее время: Сегодня 09:53

Часовой пояс: GMT + 4



Вы не можете начинать темы
Вы не можете отвечать на сообщения
Вы не можете редактировать свои сообщения
Вы не можете удалять свои сообщения
Вы не можете голосовать в опросах
Вы не можете прикреплять файлы к сообщениям
Вы не можете скачивать файлы