Король вечеринок / National Lampoon's Van Wilder (Уолт Бекер / Walt Becker) [2002, комедия, мелодрама, BDRip] [Unrated] DVO (Пирамида) + Sub (Rus, Eng)

Ответить на тему
 
Автор
Сообщение

awk05 ®

Пол:

Стаж: 5 лет 7 месяцев

Сообщений: 1352

Репутация: 275 [+] [-]

Откуда: Западная Украина Ривне

Пост 20-Янв-2014 01:15

[Цитировать] 

--Король вечеринок / National Lampoon's Van Wilder --
Год выпуска: 2002
Страна: Германия, США
Жанр: комедия, мелодрама
Продолжительность: 01:33:52
Перевод: Профессиональный (двухголосый, закадровый) Пирамида
Cубтитры: Русские,английские (внешние *.srt)--Режиссер: Уолт Бекер / Walt Becker--В ролях: Райан Рейнольдс (Van Wilder), Тара Рид (Gwen Pearson), Тим Мэтисон (Vance Wilder Sr.), Кэл Пенн (Taj Mahal Badalandabad), Тек Холмс (Hutch), Дэниэл Косгров (Richard Bagg), Дион Ричмонд (Mini Cochran), Алекс Барнс (Gordon), Эмили Рутерферд (Jeannie), Пол Глисон (Professor McDoogle), Эрик Эстрада (играет самого себя), Кертис Армстронг (Campus Cop)--О фильме: Вэн Уайлдер учится в колледже уже шесть лет, и все никак не может получить диплом. Но вовсе не из-за того, что он самый тупой ученик в группе, а потому что без ума влюблен в беззаботную студенческую жизнь. К своему ужасу он узнает, что отец не намерен оплачивать затянувшуюся учебу своего отпрыска, и теперь у него всего два варианта: либо самостоятельно заплатить за седьмой год веселья, либо… стать, в конце концов, выпускником!--Качество: BDRip
Формат: AVI
Видео кодек: XviD
Аудио кодек: AC3
Видео: 720x384 (1.85:1), 23.976 fps, XviD build 50 ~1756 kbps avg, 0.265 bit/pixel
Аудио: 48 kHz, AC3 Dolby Digital, 3/2 (L,C,R,l,r) + LFE ch, ~448.00 kbps avg-- --

MediaInfo

Общее
Полное имя : D:\раздачи\Korol.vecherinok.Unrated.2002.RUS.BDRip.XviD.AC3.-HQCLUB\Korol.vecherinok.Unrated.2002.RUS.BDRip.XviD.AC3.-HQCLUB.avi
Формат : AVI
Формат/Информация : Audio Video Interleave
Размер файла : 1,45 Гбайт
Продолжительность : 1 ч. 33 м.
Общий поток : 2214 Кбит/сек
Название фильма : Korol.vecherinok.Unrated.2002.RUS.BDRip.XviD.AC3.-HQCLUB
Режиссёр : kingsize87
Программа кодирования : VirtualDubMod 1.5.10.2 (build 2542/release)
Правообладатель : http://hqclub.net/
Примечание : 23.10.2010
Видео
Идентификатор : 0
Формат : MPEG-4 Visual
Профиль формата : Advanced Simple@L5
Параметр BVOP формата : 1
Параметр QPel формата : Нет
Параметр GMC формата : Без точки перехода
Параметр матрицы формата : Выборочная
Режим смешивания : Сжатый битовый поток
Идентификатор кодека : XVID
Идентификатор кодека/Подсказка : XviD
Продолжительность : 1 ч. 33 м.
Битрейт : 1756 Кбит/сек
Ширина : 720 пикселей
Высота : 384 пикселя
Соотношение сторон : 1,85:1
Частота кадров : 23,976 кадра/сек
Цветовое пространство : YUV
Субдискретизация насыщенности : 4:2:0
Битовая глубина : 8 бит
Тип развёртки : Прогрессивная
Метод сжатия : С потерями
Бит/(Пиксели*Кадры) : 0.265
Размер потока : 1,15 Гбайт (79%)
Библиотека кодирования : XviD 1.2.1 (UTC 2008-12-04)
Аудио
Идентификатор : 1
Формат : AC-3
Формат/Информация : Audio Coding 3
Расширение режима : CM (complete main)
Параметр Endianness формата : Big
Идентификатор кодека : 2000
Продолжительность : 1 ч. 33 м.
Вид битрейта : Постоянный
Битрейт : 448 Кбит/сек
Каналы : 6 каналов
Расположение каналов : Front: L C R, Side: L R, LFE
Частота : 48,0 КГц
Битовая глубина : 16 бит
Метод сжатия : С потерями
Размер потока : 301 Мбайт (20%)
Выравнивание : Разделение по промежуткам
Продолжительность промежутка : 42 мс. (1,00 видеокадр)
Время предзагрузки промежутка : 500 мс.

_________________
[Торрент-статистика]
[Профиль]  [ЛС] 
Показать сообщения:    
Ответить на тему

Текущее время: Сегодня 07:28

Часовой пояс: GMT + 4



Вы не можете начинать темы
Вы не можете отвечать на сообщения
Вы не можете редактировать свои сообщения
Вы не можете удалять свои сообщения
Вы не можете голосовать в опросах
Вы не можете прикреплять файлы к сообщениям
Вы не можете скачивать файлы